ML
     
  Уважаемый Гость!
Вы можете поддержать проект и зарегистрироваться у наших партнеров - онлайн-стратегия MyLands. При регистрации в игре Вы получите код, который сможете активировать после регистрации на pirat.ca и получить 1000 дублонов.

Ваш код:
fcd618d94adc1456bccbde5047c9cd0930e4ae4d
 
     

Настоящий детектив / True Detective / Сезон: 2 / Серии: 1-8 из 8 (Кэри Фукунага / Cary Fukunaga) [2015 г., детектив, криминал, триллер, драма, HDTVRip] MVO (BaibaKo) + Original (Eng) [Полный]

Ответить на тему
 
Автор
Сообщение

Пост 23-Июн-2015 15:41

[Q] 

LPPI

-Настоящий детектив / True Detective- Производство: США, Anonymous Content, Lee Caplin / Picture Entertainment, Passenger
Жанр: детектив, криминал, триллер, драма
Год выпуска: 2015 г.-Озвучка:
Перевод: Профессиональный (многоголосый, закадровый)
ВНИМАНИЕ! В сериале присутствует ненормативная лексика
Оригинальный аудиопоток: английский-Сезон: 2
Серии: 8 из 8 серий
Продолжительность: ~ 00:60:00 мин серия-Режиссер: Кэри Фукунага / Cary Fukunaga
В ролях: Мэттью МакКонахи, Вуди Харрельсон, Мишель Монахэн, Брюс Эллиотт, Рендал Гонсалес, Тори Киттлз, Дэвид Стивен Митчелл, Майкл Поттс, Эрик Прайс, Мэдисон Вульф-Описание: Главные герои — два детектива. В 2012 году в штате Луизиана повторно открывается дело о серийном убийстве в 1995 году. Детективы познакомились 17 лет назад, когда началось расследование, и с тех пор вместе охотились за киллером. Повествование будет вестись как в наше время, так и откатится назад, в середину девяностых.- -Качество видео: HDTVRip
Контейнер: AVI
Видео кодек: XviD
Аудио кодек: MP3
Видео: 720x400 (1.80:1), 23.976 fps, XviD build 50 ~1560 kbps avg, 0.23 bit/pixel
Аудио: Russian: 48 kHz, MPEG Layer 3, 2 ch, ~192.00 kbps avg
Аудио #2: English: 48 kHz, MPEG Layer 3, 2 ch, ~192.00 kbps avg
Cубтитры: отсутствуют-
1. Западная книга мёртвых
2. Ночь тебя найдёт
3. Может завтра
4. Грядущее падение
5. Другие жизни
6. Церковь в руинах
7. Чёрные карты и дешёвые номера
8. Станция Омега
General
Complete name : C:\Users\Ivan\Desktop\Настоящий детектив S2 2015 HDTVRip\True.Detective.s02e01.HDTVRip.XviD.Rus.Eng.BaibaKo.tv.avi
Format : AVI
Format/Info : Audio Video Interleave
File size : 848 MiB
Duration : 1h 0mn
Overall bit rate : 1 959 Kbps
Writing application : VirtualDubMod 1.5.10.2 (build 2540/release)
Writing library : VirtualDubMod build 2540/release
Video
ID : 0
Format : MPEG-4 Visual
Format profile : Advanced [email protected]
Format settings, BVOP : 2
Format settings, QPel : No
Format settings, GMC : No warppoints
Format settings, Matrix : Default (H.263)
Codec ID : XVID
Codec ID/Hint : XviD
Duration : 1h 0mn
Bit rate : 1 561 Kbps
Width : 720 pixels
Height : 400 pixels
Display aspect ratio : 16:9
Frame rate : 23.976 fps
Color space : YUV
Chroma subsampling : 4:2:0
Bit depth : 8 bits
Scan type : Progressive
Compression mode : Lossy
Bits/(Pixel*Frame) : 0.226
Stream size : 676 MiB (80%)
Writing library : XviD 1.2.1 (UTC 2008-12-04)
Audio #1
ID : 1
Format : MPEG Audio
Format version : Version 1
Format profile : Layer 3
Mode : Joint stereo
Mode extension : MS Stereo
Codec ID : 55
Codec ID/Hint : MP3
Duration : 1h 0mn
Bit rate mode : Constant
Bit rate : 192 Kbps
Channel(s) : 2 channels
Sampling rate : 48.0 KHz
Compression mode : Lossy
Stream size : 83.1 MiB (10%)
Alignment : Aligned on interleaves
Interleave, duration : 42 ms (1.00 video frame)
Interleave, preload duratio : 504 ms
Audio #2
ID : 2
Format : MPEG Audio
Format version : Version 1
Format profile : Layer 3
Mode : Joint stereo
Mode extension : MS Stereo
Codec ID : 55
Codec ID/Hint : MP3
Duration : 1h 0mn
Bit rate mode : Constant
Bit rate : 192 Kbps
Channel(s) : 2 channels
Sampling rate : 48.0 KHz
Compression mode : Lossy
Stream size : 83.1 MiB (10%)
Alignment : Aligned on interleaves
Interleave, duration : 42 ms (1.00 video frame)
Interleave, preload duratio : 504 ms
-Скриншоты:---Добавлена 8 серия (Финал) второго сезона-Доступно благодаря группе: Не забываем говорить -
Download / Скачать

Хотите скачать бесплатно? Зарегистрируйтесь на сайте (ссылка на регистрацию). Pirat.ca - самый быстрый торрент трекер в рунете!

Как скачивать  ·   Что такое торрент  ·   Рейтинг и ограничения



Последний раз редактировалось: LPPI (2015-08-12 20:49), всего редактировалось 7 раз(а)

Nostromizer

Морской Волк

Пост 23-Июн-2015 18:50 (спустя 3 часа)

[Q] 

Благодарствую! Качну 1080.

_________________
Mark It Zero!
[Профиль]  [ЛС] 

Helgi

Шкипер

Пост 24-Июн-2015 08:12 (спустя 13 часов)

[Q] 

Эй, команда, а кто-нибудь в курсе, раздавать кто-то будет, или так и будем сопли на кулак наматывать? Эй, вернитесь на раздачу...
[Профиль]  [ЛС] 

LPPI ®

137546

Пост 01-Июл-2015 14:38 (спустя 7 дней)

[Q] 

Добавлена 2 серия второго сезона
[Профиль]  [ЛС] 

LPPI ®

137546

Пост 10-Июл-2015 21:24 (спустя 9 дней)

[Q] 

Добавлена 3 серия второго сезона
[Профиль]  [ЛС] 

LPPI ®

137546

Пост 15-Июл-2015 21:26 (спустя 5 дней)

[Q] 

Добавлена 4 серия второго сезона
[Профиль]  [ЛС] 

Sanches

Корсар

Пост 16-Июл-2015 16:00 (спустя 18 часов)

[Q] 

всё хорошо, только откуда во втором сезоне Мэттью МакКонахи и Вуди Харрельсон???
[Профиль]  [ЛС] 

LPPI ®

137546

Пост 22-Июл-2015 23:59 (спустя 6 дней)

[Q] 

Добавлена 5 серия второго сезона
[Профиль]  [ЛС] 

LPPI ®

137546

Пост 28-Июл-2015 11:37 (спустя 5 дней)

[Q] 

Добавлена 6 серия второго сезона
[Профиль]  [ЛС] 

lightmaster

Флибустьер

Пост 28-Июл-2015 23:06 (спустя 11 часов)

[Q] 

LPPI,спасибо, ждал второй сезон-дождался А говорили, что Вуди и Мэтью сниматься во втором не хотят... Лови бочку
[Профиль]  [ЛС] 

lightmaster

Флибустьер

Пост 01-Авг-2015 01:36 (спустя 3 дня)

[Q] 

LPPI, прости, но их с нами нет( Вуди и Мэтью)!!! Убери инфу неправильную.Данные с первого сезона...Да и реклама казино уж слишком навязчивая...
[Профиль]  [ЛС] 

LPPI ®

137546

Пост 05-Авг-2015 10:51 (спустя 4 дня)

[Q] 

Добавлена 7 серия второго сезона
[Профиль]  [ЛС] 

danilaz

Лоцман

Пост 09-Авг-2015 13:09 (спустя 4 дня)

[Q] 

Раздавать будем или как?
Эй, вернитесь на раздачу...
[Профиль]  [ЛС] 

LPPI ®

137546

Пост 12-Авг-2015 20:49 (спустя 3 дня)

[Q] 

Добавлена 8 серия (Финал) второго сезона
[Профиль]  [ЛС] 

Пост 12-Авг-2015 23:41 (спустя 2 часа 51 минута)

Топик был перенесен из форума Сериалы в эфире в форум Зарубежные сериалы
Андря
 
Показать сообщения:    
Ответить на тему

Текущее время: Сегодня 12:54

Часовой пояс: GMT + 4



Вы не можете начинать темы
Вы не можете отвечать на сообщения
Вы не можете редактировать свои сообщения
Вы не можете удалять свои сообщения
Вы не можете голосовать в опросах
Вы не можете прикреплять файлы к сообщениям
Вы не можете скачивать файлы

▼ Вниз