ML
     
  Уважаемый Гость!
Вы можете поддержать проект и зарегистрироваться у наших партнеров - онлайн-стратегия MyLands. При регистрации в игре Вы получите код, который сможете активировать после регистрации на pirat.ca и получить 1000 дублонов.

Ваш код:
f612af22ea70acf5cbe90707ac5a076d215f8f7f
 
     

Под куполом / Under the Dome / Сезон: 3 / Серии: 1-13 из 13 (Джек Бендер / Jack Bender) [2015 г., фантастика, триллер, драма, детектив, WEB-DLRip] MVO (BaibaKo) + Original (Eng) [Полный]

Ответить на тему
 
Автор
Сообщение

Пост 28-Июн-2015 19:18

[Q] 

LPPI

-Под куполом / Under the Dome- Производство: США, Amblin Television, Baer Bones, CBS Television Studios
Жанр: фантастика, триллер, драма, детектив
Год выпуска: 2015 г.-Озвучка:
Перевод: Профессиональный (многоголосый, закадровый)
Оригинальный аудиопоток: английский-Сезон: 3
Серии: 13 из 13 серий
Продолжительность: ~ 00:43:00 мин серия-Режиссер: Джек Бендер / Jack Bender
В ролях: Майк Фогель, Колин Форд, Аиша Хиндс, Александр Кох, Рашель Лефевр, Натали Мартинез, Дин Норрис, Джолин Парди, Бриттани Робертсон, Николас Стронг-Описание: Обычным погожим осенним днем город Честерс Милл, штат Мэн, оказывается внезапно отрезанным от остального мира невидимым барьером. В купол врезается самолет. Загадочное силовое поле не щадит ни постройки, ни автомобили, ни животных, ни людей. Выехавшие в соседний город по делам не могут вернуться к своим близким. Никто не понимает, что это за барьер, откуда он взялся и исчезнет ли.
Дейл Барбара, ветеран войны в Ираке, а ныне повар, теперь в одной команде с несколькими отважными жителями — Джулией Шамвей, владелицей городской газеты, помощником врача, женщиной и тремя храбрыми детьми. Против них выступает Большой Джим Ренни — местный политический деятель, который для удержания власти не остановится ни перед чем, даже перед убийством, а также его сын со своим личным «скелетом в шкафу». Но главный их противник — сам Купол…- -Качество видео: WEB-DLRip
Контейнер: AVI
Видео кодек: XviD
Аудио кодек: MP3
Видео: 720x400 (1.80:1), 23.976 fps, XviD build 50 ~1500 kbps avg, 0.22 bit/pixel
Аудио: Russian: 48 kHz, MPEG Layer 3, 2 ch, ~192.00 kbps avg
Аудио #2: English: 48 kHz, MPEG Layer 3, 2 ch, ~192.00 kbps avg
Cубтитры: отсутствуют-
1. Жить дальше
2. Но я не она
3. Преображение
4. Семья
5. Аляска
6. В клетке
7. Выброс
8. Переломный момент
9. План Б
10. Наследие
11. Любовь - поле боя
12. До белого каления
13. Внутренний враг
General
Complete name : C:\Users\Ivan\Desktop\Под куполом S3 2015 WEB-DLRip\Under.the.Dome.s03e01-02.WEB-DLRip.XviD.Rus.Eng.BaibaKo.tv.avi
Format : AVI
Format/Info : Audio Video Interleave
File size : 1.10 GiB
Duration : 1h 23mn
Overall bit rate : 1 900 Kbps
Writing application : VirtualDubMod 1.5.10.2 (build 2540/release)
Writing library : VirtualDubMod build 2540/release
Video
ID : 0
Format : MPEG-4 Visual
Format profile : Advanced [email protected]
Format settings, BVOP : 2
Format settings, QPel : No
Format settings, GMC : No warppoints
Format settings, Matrix : Default (H.263)
Codec ID : XVID
Codec ID/Hint : XviD
Duration : 1h 23mn
Bit rate : 1 502 Kbps
Width : 720 pixels
Height : 400 pixels
Display aspect ratio : 16:9
Frame rate : 23.976 fps
Color space : YUV
Chroma subsampling : 4:2:0
Bit depth : 8 bits
Scan type : Progressive
Compression mode : Lossy
Bits/(Pixel*Frame) : 0.218
Stream size : 894 MiB (79%)
Writing library : XviD 1.2.1 (UTC 2008-12-04)
Audio #1
ID : 1
Format : MPEG Audio
Format version : Version 1
Format profile : Layer 3
Mode : Joint stereo
Mode extension : MS Stereo
Codec ID : 55
Codec ID/Hint : MP3
Duration : 1h 23mn
Bit rate mode : Constant
Bit rate : 192 Kbps
Channel(s) : 2 channels
Sampling rate : 48.0 KHz
Compression mode : Lossy
Stream size : 114 MiB (10%)
Alignment : Aligned on interleaves
Interleave, duration : 42 ms (1.00 video frame)
Interleave, preload duratio : 504 ms
Audio #2
ID : 2
Format : MPEG Audio
Format version : Version 1
Format profile : Layer 3
Mode : Joint stereo
Mode extension : MS Stereo
Codec ID : 55
Codec ID/Hint : MP3
Duration : 1h 23mn
Bit rate mode : Constant
Bit rate : 192 Kbps
Channel(s) : 2 channels
Sampling rate : 48.0 KHz
Compression mode : Lossy
Stream size : 114 MiB (10%)
Alignment : Aligned on interleaves
Interleave, duration : 42 ms (1.00 video frame)
Interleave, preload duratio : 504 ms
-Скриншоты:---Добавлена 13 серия третьего сезона-Доступно благодаря группе: Не забываем говорить -
Download / Скачать

Хотите скачать бесплатно? Зарегистрируйтесь на сайте (ссылка на регистрацию). Pirat.ca - самый быстрый торрент трекер в рунете!

Как скачивать  ·   Что такое торрент  ·   Рейтинг и ограничения



Последний раз редактировалось: LPPI (2015-09-12 22:23), всего редактировалось 9 раз(а)

LPPI ®

137548

Пост 04-Июл-2015 18:20 (спустя 5 дней)

[Q] 

Добавлена 3 серия третьего сезона
[Профиль]  [ЛС] 

LPPI ®

137548

Пост 19-Июл-2015 20:31 (спустя 15 дней)

[Q] 

Добавлена 4 и 5 серия третьего сезона
[Профиль]  [ЛС] 

LPPI ®

137548

Пост 26-Июл-2015 12:37 (спустя 6 дней)

[Q] 

Добавлена 6 серия третьего сезона
[Профиль]  [ЛС] 

LPPI ®

137548

Пост 02-Авг-2015 16:49 (спустя 7 дней)

[Q] 

Добавлена 7 серия третьего сезона
[Профиль]  [ЛС] 

LPPI ®

137548

Пост 09-Авг-2015 11:09 (спустя 6 дней)

[Q] 

Добавлена 8 серия третьего сезона
[Профиль]  [ЛС] 

LPPI ®

137548

Пост 15-Авг-2015 12:00 (спустя 6 дней)

[Q] 

Добавлена 9 серия третьего сезона
[Профиль]  [ЛС] 

Pesok

Гроза морей

Пост 16-Авг-2015 01:43 (спустя 13 часов)

[Q] 

Спасибо, хотя в последнем сезоне они похоже сьехали с темы(и уже не по книге Кинга) но хочетса закончить так как 2 сезона уже просмотрел. Лови бочку!

_________________
[Профиль]  [ЛС] 

LPPI ®

137548

Пост 22-Авг-2015 12:13 (спустя 6 дней)

[Q] 

Добавлена 10 серия третьего сезона
[Профиль]  [ЛС] 

LPPI ®

137548

Пост 30-Авг-2015 18:48 (спустя 8 дней)

[Q] 

Добавлена 11 серия третьего сезона
[Профиль]  [ЛС] 

lightmaster

Флибустьер

Пост 06-Сен-2015 11:11 (спустя 6 дней)

[Q] 

То-то смотрю- второй закончился невнятно... Лови бочку
[Профиль]  [ЛС] 

LPPI ®

137548

Пост 06-Сен-2015 11:52 (спустя 40 минут)

[Q] 

Добавлена 12 серия третьего сезона
[Профиль]  [ЛС] 

pvm

Корсар

Пост 06-Сен-2015 17:00 (спустя 5 часов)

[Q] 

Третий сезон последний?
[Профиль]  [ЛС] 

LPPI ®

137548

Пост 12-Сен-2015 22:23 (спустя 6 дней)

[Q] 

Добавлена 13 серия третьего сезона
[Профиль]  [ЛС] 

kmv01

Гроза морей

Пост 13-Сен-2015 12:52 (спустя 14 часов)

[Q] 

13-я серия оперативно! Респект)
[Профиль]  [ЛС] 

pvm

Корсар

Пост 13-Сен-2015 16:20 (спустя 3 часа)

[Q] 

Как замечательно. "Спасибо" за ответ.
[Профиль]  [ЛС] 
Показать сообщения:    
Ответить на тему

Текущее время: Сегодня 00:26

Часовой пояс: GMT + 4



Вы не можете начинать темы
Вы не можете отвечать на сообщения
Вы не можете редактировать свои сообщения
Вы не можете удалять свои сообщения
Вы не можете голосовать в опросах
Вы не можете прикреплять файлы к сообщениям
Вы не можете скачивать файлы

▼ Вниз