ML
     
  Уважаемый Гость!
Вы можете поддержать проект и зарегистрироваться у наших партнеров - онлайн-стратегия MyLands. При регистрации в игре Вы получите код, который сможете активировать после регистрации на pirat.ca и получить 1000 дублонов.

Ваш код:
0fcd44bd35319f69313aa6e53b31c51cbff1c942
 
     

Настоящий детектив / True Detective / Сезон: 1 / Серии: 1-8 (8) (Кэри Фукунага / Cary Fukunaga) [2014 г., драма, криминал, BDRip, 720p] DVO (Кубик в Кубе) + MVO (Novamedia) + Original (Eng) + Sub (Rus, Eng)

Ответить на тему
 
Автор
Сообщение

Пост 30-Июн-2015 17:35

[Q] 

TERMOS

Легенда

-Настоящий детектив / True Detective
«Man is the cruelest animal»
(1 сезон)
-- Производство: США | HBO
Жанр: драма, криминал
Год выпуска: 2014 г.
Продолжительность: 8x ~01:00:00
Перевод: Профессиональный (двухголосый, закадровый) [Кубик в Кубе]
Перевод 2: Профессиональный (многоголосый, закадровый) [Novamedia]
Оригинальный аудиопоток: английский
Режиссер: Кэри Фукунага / Cary Fukunaga-В ролях: Мэттью МакКонахи, Вуди Харрельсон, Мишель Монахэн, Майкл Поттс, Тори Киттлз, Брюс Эллиотт, Мэдисон Вульф, Рендал Гонсалес, Дэвид Стивен Митчелл, Эрик Прайс, ...-Описание: Главные герои — два детектива. В 2012 году в штате Луизиана повторно открывается дело о серийном убийстве в 1995 году. Детективы познакомились 17 лет назад, когда началось расследование, и с тех пор вместе охотились за киллером. Повествование будет вестись как в наше время, так и откатится назад, в середину девяностых.-Внимание! В переводе Кубиков присутствует ненормативная лексика!
- -Качество видео: BDRip
Контейнер: MKV
Стандарт разрешения: 720p
Видео кодек: H.264/AVC
Аудио кодек: DTS, AC3
Видео: 1280x720, 23.976 fps, ~6500 kbps avg
Аудио: Russian: 48 kHz, DTS, 3/2 (L,C,R,l,r) + LFE ch, ~1510.00 kbps avg |Двухголосый закадровый, Кубик в Кубе|
Аудио #2: Russian: 48 kHz, AC3, 3/2 (L,C,R,l,r) + LFE ch, ~384.00 kbps avg |Многоголосый закадровый, Novamedia|
Аудио #3: English: 48 kHz, DTS, 3/2 (L,C,R,l,r) + LFE ch, ~1510.00 kbps avg
Cубтитры: русские, английские

1. Огромная яркая темнота (The Long Bright Dark)
2. Галлюцинации (Seeing Things)
3. Закрытая комната (The Locked Room)
4. Кто идёт (Who Goes There)
5. Тайный рок всей жизни (The Secret Fate of All Life )
6. Дома с привидениями (Haunted Houses)
7. После твоего ухода (After You've Gone)
8. Нечто и ничто (Form and Void)
Код:
General
Unique ID                   : 203491400728065571423658805363379290927 (0x991704A9541AE6B1973C38999274432F)
Complete name               : Y:\Uploads\Pirat.Ca\True Detective - Season 01 (2014)[720p.BDRip]\True.Detective.S01E01.720p.BDRip.Rus.Eng.mkv
Format                      : Matroska
Format version              : Version 4 / Version 2
File size                   : 4.14 GiB
Duration                    : 59mn 45s
Overall bit rate            : 9 912 Kbps
Movie name                  : True.Detective.S01E01.The.Long.Bright.Dark / Serdg71
Encoded date                : UTC 2014-06-19 20:42:08
Writing application         : mkvmerge v6.5.0 ('Isn't she lovely') built on Oct 20 2013 12:50:05
Writing library             : libebml v1.3.0 + libmatroska v1.4.1
Video
ID                          : 1
Format                      : AVC
Format/Info                 : Advanced Video Codec
Format profile              : [email protected]
Format settings, CABAC      : Yes
Format settings, ReFrames   : 9 frames
Codec ID                    : V_MPEG4/ISO/AVC
Duration                    : 59mn 45s
Bit rate                    : 6 500 Kbps
Width                       : 1 280 pixels
Height                      : 720 pixels
Display aspect ratio        : 16:9
Frame rate mode             : Constant
Frame rate                  : 23.976 fps
Color space                 : YUV
Chroma subsampling          : 4:2:0
Bit depth                   : 8 bits
Scan type                   : Progressive
Bits/(Pixel*Frame)          : 0.294
Stream size                 : 2.63 GiB (64%)
Title                       : True.Detective.S01E01.The.Long.Bright.Dark
Writing library             : x264 core 130 r2273 b3065e6
Encoding settings           : cabac=1 / ref=9 / deblock=1:-3:-3 / analyse=0x3:0x133 / me=umh / subme=11 / psy=1 / psy_rd=1.00:0.00 / mixed_ref=1 / me_range=32 / chroma_me=1 / trellis=2 / 8x8dct=1 / cqm=0 / deadzone=21,11 / fast_pskip=0 / chroma_qp_offset=-2 / threads=12 / lookahead_threads=2 / sliced_threads=0 / nr=0 / decimate=1 / interlaced=0 / bluray_compat=0 / constrained_intra=0 / bframes=8 / b_pyramid=2 / b_adapt=2 / b_bias=0 / direct=3 / weightb=1 / open_gop=0 / weightp=2 / keyint=250 / keyint_min=23 / scenecut=40 / intra_refresh=0 / rc_lookahead=60 / rc=2pass / mbtree=1 / bitrate=6500 / ratetol=1.0 / qcomp=0.70 / qpmin=0 / qpmax=69 / qpstep=4 / cplxblur=20.0 / qblur=0.5 / ip_ratio=1.40 / aq=1:0.80
Language                    : English
Default                     : Yes
Forced                      : No
Audio #1
ID                          : 2
Format                      : DTS
Format/Info                 : Digital Theater Systems
Mode                        : 16
Format settings, Endianness : Big
Codec ID                    : A_DTS
Duration                    : 59mn 45s
Bit rate mode               : Constant
Bit rate                    : 1 509 Kbps
Channel(s)                  : 6 channels
Channel positions           : Front: L C R, Side: L R, LFE
Sampling rate               : 48.0 KHz
Bit depth                   : 24 bits
Compression mode            : Lossy
Stream size                 : 645 MiB (15%)
Title                       : Кубик в Кубе
Language                    : Russian
Default                     : Yes
Forced                      : No
Audio #2
ID                          : 3
Format                      : AC-3
Format/Info                 : Audio Coding 3
Mode extension              : CM (complete main)
Format settings, Endianness : Big
Codec ID                    : A_AC3
Duration                    : 59mn 45s
Bit rate mode               : Constant
Bit rate                    : 384 Kbps
Channel(s)                  : 6 channels
Channel positions           : Front: L C R, Side: L R, LFE
Sampling rate               : 48.0 KHz
Bit depth                   : 16 bits
Compression mode            : Lossy
Stream size                 : 164 MiB (4%)
Title                       : Амедиа
Language                    : Russian
Default                     : No
Forced                      : No
Audio #3
ID                          : 4
Format                      : DTS
Format/Info                 : Digital Theater Systems
Mode                        : 16
Format settings, Endianness : Big
Codec ID                    : A_DTS
Duration                    : 59mn 45s
Bit rate mode               : Constant
Bit rate                    : 1 509 Kbps
Channel(s)                  : 6 channels
Channel positions           : Front: L C R, Side: L R, LFE
Sampling rate               : 48.0 KHz
Bit depth                   : 24 bits
Compression mode            : Lossy
Stream size                 : 645 MiB (15%)
Language                    : English
Default                     : No
Forced                      : No
Text #1
ID                          : 5
Format                      : UTF-8
Codec ID                    : S_TEXT/UTF8
Codec ID/Info               : UTF-8 Plain Text
Language                    : Russian
Default                     : No
Forced                      : No
Text #2
ID                          : 6
Format                      : UTF-8
Codec ID                    : S_TEXT/UTF8
Codec ID/Info               : UTF-8 Plain Text
Language                    : English
Default                     : No
Forced                      : No
Download / Скачать

Хотите скачать бесплатно? Зарегистрируйтесь на сайте (ссылка на регистрацию). Pirat.ca - самый быстрый торрент трекер в рунете!

Как скачивать  ·   Что такое торрент  ·   Рейтинг и ограничения

Hippopotam

Корсар

Пост 20-Июл-2015 13:56 (спустя 19 дней)

[Q] 

Гран мерси! Превосходный сериал! Автору респект!!!
[Профиль]  [ЛС] 
Показать сообщения:    
Ответить на тему

Текущее время: Сегодня 02:09

Часовой пояс: GMT + 4



Вы не можете начинать темы
Вы не можете отвечать на сообщения
Вы не можете редактировать свои сообщения
Вы не можете удалять свои сообщения
Вы не можете голосовать в опросах
Вы не можете прикреплять файлы к сообщениям
Вы не можете скачивать файлы

▼ Вниз