ML
     
  Уважаемый Гость!
Вы можете поддержать проект и зарегистрироваться у наших партнеров - онлайн-стратегия MyLands. При регистрации в игре Вы получите код, который сможете активировать после регистрации на pirat.ca и получить 1000 дублонов.

Ваш код:
820ff11140eb31ec2ed1adb84803f0936d26b2c1
 
     

Под куполом / Under the Dome / Сезон: 3 / Серии: 1-13 (13) (Джек Бендер / Jack Bender, ...) [2015 г., фантастика, триллер, драма, детектив, HDTVRip, 1080p] MVO (LostFilm) + Original (Eng) + Sub (Eng)

Ответить на тему
 
Автор
Сообщение

Пост 30-Июн-2015 19:14

[Q] 

TERMOS

Легенда

-Под куполом / Under the Dome
«They are all trapped inside»
(3 сезон)
-- Производство: США | CBS
Жанр: фантастика, триллер, драма, детектив
Год выпуска: 2015 г.
Продолжительность: 13х ~00:43:00
Перевод: Профессиональный (многоголосый, закадровый) [LostFilm]
Оригинальный аудиопоток: английский
Режиссер: Джек Бендер / Jack Bender, Дэвид Баррет / David Barrett, Питер Лето / Peter Leto, ...-В ролях: Майк Фогель, Рашель Лефевр, Натали Мартинез, Бритт Робертсон, Александр Кок, Колин Форд, Дин Норрис, Маккензи Линтц, Николас Стронг, Аиша Хиндс-Описание: Обычным, пригожим осенним днем, город Честерс Миллз, штат Мэн, был внезапно отрезан от остального мира невидимым силовым барьером. Самолеты врезаются в купол и падают, пылая, с небес; садовнику отрезает силовым полем руку; люди, выехавшие в соседний город по делам, не могут вернуться к своим близким; автомобили взрываются от столкновения с куполом. Никто не понимает, что это за барьер, откуда он взялся и исчезнет ли он.
- - -
1-2 серии:
Качество видео: HDTVRip
Источник: Under.the.Dome.S03.1080p.HDTV.X264-DIMENSION
Контейнер: MKV
Стандарт разрешения: 1080p
Видео кодек: H.264/AVC
Аудио кодек: AC3
Видео: 1920x1080 at 23.976 fps, ~13 800 kbps avg
Аудио: Russian: 48 kHz, AC3, 3/2 (L,C,R,l,r) + LFE ch, ~640.00 kbps avg |Многоголосый закадровый, LostFilm|
Аудио #2: English: 48 kHz, AC3, 3/2 (L,C,R,l,r) + LFE ch, ~640.00 kbps avg
Cубтитры: английские
3-13 серии:
Качество видео: HDTVRip
Источник: Under.the.Dome.S03.1080p.HDTV.X264-DIMENSION
Контейнер: MKV
Стандарт разрешения: 1080p
Видео кодек: H.264/AVC
Аудио кодек: AC3
Видео: 1920x1080 at 23.976 fps, ~9000 kbps avg
Аудио: Russian: 48 kHz, AC3, 3/2 (L,C,R,l,r) + LFE ch, ~384.00 kbps avg |Многоголосый закадровый, LostFilm|
Аудио #2: English: 48 kHz, AC3, 3/2 (L,C,R,l,r) + LFE ch, ~384.00 kbps avg
Cубтитры: английские
01: Идите дальше (Move On)
02: А я останусь (But I'm Not)
03: Возвращение (Redux)
04: Общность (The Kinship)
05: Аляска (Alaska)
06: В клетке (Caged)
07: Выброс (Ejecta)
08: Переломный момент (Breaking Point)
09: План Б (Plan B)
10: Наследие (Legacy)
11: Любовь - это поле боя (Love Is a Battlefield)
12: Накаливание (Incandescence)
13: Чужой среди нас (The Enemy Within)
Код:
General
Unique ID                   : 26315476934538253089365105458401055366 (0x13CC2D2F4B606C5390D37494E1711286)
Complete name               : J:\Uploads\Pirat.Ca\Under The Dome - Season 03 (2015)[1080p.HDTVRip]\Under.The.Dome.S03E01-02.1080p.HDTVRip.Rus.Eng.HDCLUB.mkv
Format                      : Matroska
Format version              : Version 4 / Version 2
File size                   : 9.00 GiB
Duration                    : 1h 23mn
Overall bit rate            : 15.4 Mbps
Encoded date                : UTC 2015-06-29 13:18:33
Writing application         : mkvmerge v8.1.0 ('Psychedelic Postcard') 64bit
Writing library             : libebml v1.3.1 + libmatroska v1.4.2
Video
ID                          : 1
Format                      : AVC
Format/Info                 : Advanced Video Codec
Format profile              : [email protected]
Format settings, CABAC      : Yes
Format settings, ReFrames   : 4 frames
Codec ID                    : V_MPEG4/ISO/AVC
Duration                    : 1h 23mn
Bit rate                    : 13.8 Mbps
Width                       : 1 920 pixels
Height                      : 1 080 pixels
Display aspect ratio        : 16:9
Frame rate mode             : Constant
Frame rate                  : 23.976 fps
Color space                 : YUV
Chroma subsampling          : 4:2:0
Bit depth                   : 8 bits
Scan type                   : Progressive
Bits/(Pixel*Frame)          : 0.278
Stream size                 : 8.08 GiB (90%)
Title                       : Under The Dome 03x01-02 - Release AlexMild for HDCLUB
Writing library             : x264 core 146 r2538 121396c
Encoding settings           : cabac=1 / ref=4 / deblock=1:-3:-3 / analyse=0x3:0x133 / me=umh / subme=11 / psy=1 / psy_rd=1.00:0.00 / mixed_ref=1 / me_range=32 / chroma_me=1 / trellis=2 / 8x8dct=1 / cqm=0 / deadzone=21,11 / fast_pskip=0 / chroma_qp_offset=-2 / threads=16 / lookahead_threads=1 / sliced_threads=0 / nr=0 / decimate=1 / interlaced=0 / bluray_compat=0 / constrained_intra=0 / bframes=5 / b_pyramid=2 / b_adapt=2 / b_bias=0 / direct=3 / weightb=1 / open_gop=0 / weightp=2 / keyint=250 / keyint_min=23 / scenecut=40 / intra_refresh=0 / rc_lookahead=60 / rc=crf / mbtree=1 / crf=17.0 / qcomp=0.60 / qpmin=0 / qpmax=69 / qpstep=4 / ip_ratio=1.40 / aq=1:1.00
Language                    : English
Default                     : Yes
Forced                      : No
Matrix coefficients         : BT.709
Color range                 : Limited
Audio #1
ID                          : 2
Format                      : AC-3
Format/Info                 : Audio Coding 3
Mode extension              : CM (complete main)
Format settings, Endianness : Big
Codec ID                    : A_AC3
Duration                    : 1h 23mn
Bit rate mode               : Constant
Bit rate                    : 640 Kbps
Channel(s)                  : 6 channels
Channel positions           : Front: L C R, Side: L R, LFE
Sampling rate               : 48.0 KHz
Bit depth                   : 16 bits
Compression mode            : Lossy
Stream size                 : 383 MiB (4%)
Title                       : LostFilm
Language                    : Russian
Default                     : Yes
Forced                      : No
Audio #2
ID                          : 3
Format                      : AC-3
Format/Info                 : Audio Coding 3
Mode extension              : CM (complete main)
Format settings, Endianness : Big
Codec ID                    : A_AC3
Duration                    : 1h 23mn
Bit rate mode               : Constant
Bit rate                    : 640 Kbps
Channel(s)                  : 6 channels
Channel positions           : Front: L C R, Side: L R, LFE
Sampling rate               : 48.0 KHz
Bit depth                   : 16 bits
Compression mode            : Lossy
Stream size                 : 383 MiB (4%)
Title                       : English
Language                    : English
Default                     : No
Forced                      : No
Text
ID                          : 4
Format                      : UTF-8
Codec ID                    : S_TEXT/UTF8
Codec ID/Info               : UTF-8 Plain Text
Title                       : eng-sub
Language                    : English
Default                     : No
Forced                      : No
Download / Скачать

Хотите скачать бесплатно? Зарегистрируйтесь на сайте (ссылка на регистрацию). Pirat.ca - самый быстрый торрент трекер в рунете!

Как скачивать  ·   Что такое торрент  ·   Рейтинг и ограничения



Последний раз редактировалось: TERMOS (2015-09-22 18:43), всего редактировалось 5 раз(а)

TERMOS ®

Легенда

14778

Пост 08-Июл-2015 10:54 (спустя 7 дней)

[Q] 

Добавлена 3-я серия. Обновите торрент-файл!

_________________
[Профиль]  [ЛС] 

TERMOS ®

Легенда

14778

Пост 14-Июл-2015 06:06 (спустя 5 дней)

[Q] 

Добавлена 4-я серия. Обновите торрент-файл!

_________________
[Профиль]  [ЛС] 

maxvel911

Морской Волк

Пост 14-Июл-2015 12:32 (спустя 6 часов)

[Q] 

Что-то как то не пошел он в этот раз. Автору спасибо.
[Профиль]  [ЛС] 

TERMOS ®

Легенда

14778

Пост 22-Июл-2015 06:41 (спустя 7 дней)

[Q] 

Добавлена 5-я серия. Обновите торрент-файл!

_________________
[Профиль]  [ЛС] 

TERMOS ®

Легенда

14778

Пост 27-Июл-2015 21:48 (спустя 5 дней)

[Q] 

Добавлена 6-я серия. Обновите торрент-файл!

_________________
[Профиль]  [ЛС] 

TERMOS ®

Легенда

14778

Пост 04-Авг-2015 21:42 (спустя 7 дней)

[Q] 

Добавлена 7-я серия. Обновите торрент-файл!

_________________
[Профиль]  [ЛС] 

TERMOS ®

Легенда

14778

Пост 22-Сен-2015 18:45 (спустя 1 месяц 17 дней)

[Q] 

Добавлены 8-13 серии. Финал сезона! Обновите торрент-файл!

_________________
[Профиль]  [ЛС] 

Пост 22-Сен-2015 21:16 (спустя 2 часа 31 минута)

Топик был перенесен из форума Сериалы в эфире в форум Зарубежные сериалы
kugesan
 
Показать сообщения:    
Ответить на тему

Текущее время: Сегодня 05:38

Часовой пояс: GMT + 4



Вы не можете начинать темы
Вы не можете отвечать на сообщения
Вы не можете редактировать свои сообщения
Вы не можете удалять свои сообщения
Вы не можете голосовать в опросах
Вы не можете прикреплять файлы к сообщениям
Вы не можете скачивать файлы

▼ Вниз