ML
     
  Уважаемый Гость!
Вы можете поддержать проект и зарегистрироваться у наших партнеров - онлайн-стратегия MyLands. При регистрации в игре Вы получите код, который сможете активировать после регистрации на pirat.ca и получить 1000 дублонов.

Ваш код:
ba41f7961e0b4717aed6a401d955262223b8f6c4
 
     

Настоящий детектив / True Detective / Сезон: 2 / Серии: 1-8 (8) (Кэри Фукунага / Cary Fukunaga, ...) [2015 г., детектив, криминал, триллер, драма, HDTV, 1080p] DVO(Кубик в Кубе) + MVO(Novamedia,BaibaKo) + Original(Eng) + Sub(Rus, Eng)

Ответить на тему
 
Автор
Сообщение

Пост 30-Июн-2015 20:50

[Q] 

TERMOS

Легенда

-Настоящий детектив / True Detective
«Man is the cruelest animal»
(2 сезон)
-- Производство: США | HBO
Жанр: детектив, криминал, триллер, драма
Год выпуска: 2015 г.
Продолжительность: 8х ~01:00:00
Перевод: Профессиональный (двухголосый, закадровый) [Кубик в Кубе]
Перевод 2: Профессиональный (многоголосый, закадровый) [Novamedia]
Перевод 3: Профессиональный (многоголосый, закадровый) [BaibaKo]
Оригинальный аудиопоток: английский
Режиссер: Кэри Фукунага / Cary Fukunaga, Джастин Лин / Justin Lin, Дэниэл Эттиэс / Daniel Attias, ...-В ролях: Тэйлор Китч, Колин Фаррелл, Рэйчел МакАдамс, Винс Вон, Уильям Фридкин, Лаура Кайюэтт, Джей О. Сэндерс, ...-Описание: Мы живем в мире, который заслуживаем. В новом сезоне культового сериала зрителей ждут новое расследование и новые герои. Мрачное убийство, произошедшее в Калифорнии объединяет четырех персонажей в исполнении Колина Фаррелла, Рэйчел МакАдамс, Тейлора Китча и Винса Вона. Они объединяются, чтобы начать охоту на таинственного убийцу и разоблачить тех, чьи приказы он выполняет.
- -Качество видео: HDTV
Контейнер: MKV
Стандарт разрешения: 1080p
Видео кодек: H.264/AVC
Аудио кодек: AC3
Видео: 1920x1080 at 23.976 fps, ~14,9 Mbps avg
Аудио: Russian: 48 kHz, AC3, 3/2 (L,C,R,l,r) + LFE ch, ~384.00 kbps avg |Двухголосый закадровый, Кубик в Кубе|
Аудио #2: Russian: 48 kHz, AC3, 3/2 (L,C,R,l,r) + LFE ch, ~384.00 kbps avg |Многоголосый закадровый, Novamedia|
Аудио #3: Russian: 48 kHz, AC3, 3/2 (L,C,R,l,r) + LFE ch, ~384.00 kbps avg |Многоголосый закадровый, BaibaKo|
Аудио #4: English: 48 kHz, AC3, 3/2 (L,C,R,l,r) + LFE ch, ~384.00 kbps avg
Cубтитры: русские, английские
1. Западная Книга мертвых / The Western Book of the Dead
2. Тебя застанет ночь / Night Finds You
3. Может, завтра / Maybe Tomorrow
4. Падение / Down Will Come
5. Другие жизни / Other Lives
6. Церковь в руинах / Church in Ruins
7. Чёрные карты и номера мотеля / Black Maps and Motel Rooms
8. Конечная станция / Omega Station
Код:
General
Unique ID                   : 144190102612047345658147305805377588097 (0x6C7A00EDED5D3D38607826436E8A4B81)
Complete name               : D:\Uploads\Pirat.Ca\True Detective - Season 02 (2015)[1080p.HDTVRip]\True.Detective.S02E01.HDTV.1080p.3xRus.Eng.Sub.mkv
Format                      : Matroska
Format version              : Version 4 / Version 2
File size                   : 7.11 GiB
Duration                    : 1h 0mn
Overall bit rate            : 16.7 Mbps
Movie name                  : True Detective 02x01 - Release AlexMild
Encoded date                : UTC 2015-06-25 19:52:21
Writing application         : mkvmerge v8.0.0 ('Til The Day That I Die') 64bit
Writing library             : libebml v1.3.1 + libmatroska v1.4.2
Video
ID                          : 1
Format                      : AVC
Format/Info                 : Advanced Video Codec
Format profile              : [email protected]
Format settings, CABAC      : Yes
Format settings, ReFrames   : 4 frames
Codec ID                    : V_MPEG4/ISO/AVC
Duration                    : 1h 0mn
Bit rate                    : 14.9 Mbps
Width                       : 1 920 pixels
Height                      : 1 080 pixels
Display aspect ratio        : 16:9
Frame rate mode             : Constant
Frame rate                  : 23.976 fps
Color space                 : YUV
Chroma subsampling          : 4:2:0
Bit depth                   : 8 bits
Scan type                   : Progressive
Bits/(Pixel*Frame)          : 0.299
Stream size                 : 6.31 GiB (89%)
Title                       : True Detective 02x01 - Release AlexMild
Writing library             : x264 core 146 r2538 121396c
Encoding settings           : cabac=1 / ref=4 / deblock=1:-3:-3 / analyse=0x3:0x133 / me=umh / subme=10 / psy=1 / psy_rd=1.00:0.00 / mixed_ref=1 / me_range=48 / chroma_me=1 / trellis=2 / 8x8dct=1 / cqm=0 / deadzone=21,11 / fast_pskip=0 / chroma_qp_offset=-2 / threads=12 / lookahead_threads=2 / sliced_threads=0 / nr=0 / decimate=0 / interlaced=0 / bluray_compat=0 / constrained_intra=0 / bframes=10 / b_pyramid=2 / b_adapt=2 / b_bias=0 / direct=3 / weightb=1 / open_gop=0 / weightp=2 / keyint=250 / keyint_min=23 / scenecut=40 / intra_refresh=0 / rc=crf / mbtree=0 / crf=17.0 / qcomp=0.60 / qpmin=0 / qpmax=69 / qpstep=4 / ip_ratio=1.30 / pb_ratio=1.20 / aq=3:0.80
Language                    : English
Default                     : Yes
Forced                      : No
Matrix coefficients         : BT.709
Color range                 : Limited
Audio #1
ID                          : 2
Format                      : AC-3
Format/Info                 : Audio Coding 3
Mode extension              : CM (complete main)
Format settings, Endianness : Big
Codec ID                    : A_AC3
Duration                    : 1h 0mn
Bit rate mode               : Constant
Bit rate                    : 384 Kbps
Channel(s)                  : 6 channels
Channel positions           : Front: L C R, Side: L R, LFE
Sampling rate               : 48.0 KHz
Bit depth                   : 16 bits
Compression mode            : Lossy
Stream size                 : 167 MiB (2%)
Title                       : KvK
Language                    : Russian
Default                     : Yes
Forced                      : No
Audio #2
ID                          : 3
Format                      : AC-3
Format/Info                 : Audio Coding 3
Mode extension              : CM (complete main)
Format settings, Endianness : Big
Codec ID                    : A_AC3
Duration                    : 1h 0mn
Bit rate mode               : Constant
Bit rate                    : 384 Kbps
Channel(s)                  : 6 channels
Channel positions           : Front: L C R, Side: L R, LFE
Sampling rate               : 48.0 KHz
Bit depth                   : 16 bits
Compression mode            : Lossy
Stream size                 : 167 MiB (2%)
Title                       : Novamedia for Amedia
Language                    : Russian
Default                     : No
Forced                      : No
Audio #3
ID                          : 4
Format                      : AC-3
Format/Info                 : Audio Coding 3
Mode extension              : CM (complete main)
Format settings, Endianness : Big
Codec ID                    : A_AC3
Duration                    : 1h 0mn
Bit rate mode               : Constant
Bit rate                    : 384 Kbps
Channel(s)                  : 6 channels
Channel positions           : Front: L C R, Side: L R, LFE
Sampling rate               : 48.0 KHz
Bit depth                   : 16 bits
Compression mode            : Lossy
Stream size                 : 167 MiB (2%)
Title                       : BaibaKo
Language                    : Russian
Default                     : No
Forced                      : No
Audio #4
ID                          : 5
Format                      : AC-3
Format/Info                 : Audio Coding 3
Mode extension              : CM (complete main)
Format settings, Endianness : Big
Codec ID                    : A_AC3
Duration                    : 1h 0mn
Bit rate mode               : Constant
Bit rate                    : 384 Kbps
Channel(s)                  : 2 channels
Channel positions           : Front: L R
Sampling rate               : 48.0 KHz
Bit depth                   : 16 bits
Compression mode            : Lossy
Stream size                 : 167 MiB (2%)
Title                       : English
Language                    : English
Default                     : No
Forced                      : No
Text #1
ID                          : 6
Format                      : UTF-8
Codec ID                    : S_TEXT/UTF8
Codec ID/Info               : UTF-8 Plain Text
Title                       : Russian Sub (Amedia)
Language                    : Russian
Default                     : No
Forced                      : No
Text #2
ID                          : 7
Format                      : UTF-8
Codec ID                    : S_TEXT/UTF8
Codec ID/Info               : UTF-8 Plain Text
Title                       : English Sub
Language                    : English
Default                     : No
Forced                      : No
Download / Скачать

Хотите скачать бесплатно? Зарегистрируйтесь на сайте (ссылка на регистрацию). Pirat.ca - самый быстрый торрент трекер в рунете!

Как скачивать  ·   Что такое торрент  ·   Рейтинг и ограничения



Последний раз редактировалось: TERMOS (2015-08-25 23:46), всего редактировалось 8 раз(а)

IgorWOO

Корсар

Пост 01-Июл-2015 13:55 (спустя 17 часов)

[Q] 

Спасибо) Забираю и поддерживаю) Актеров всеж сменили(
[Профиль]  [ЛС] 

TERMOS ®

Легенда

12063

Пост 01-Июл-2015 16:24 (спустя 2 часа 28 минут)

[Q] 

IgorWOO, что значит сменили? Новый сезон, новая история, другие герои.

_________________
[Профиль]  [ЛС] 

TERMOS ®

Легенда

12063

Пост 01-Июл-2015 21:22 (спустя 4 часа)

[Q] 

Добавлена 2-я серия. Обновите торрент-файл!

_________________
[Профиль]  [ЛС] 

TERMOS ®

Легенда

12063

Пост 09-Июл-2015 17:46 (спустя 7 дней)

[Q] 

Добавлена 3-я серия. Обновите торрент-файл!

_________________
[Профиль]  [ЛС] 

lunatic1984

Лоцман

Пост 09-Июл-2015 19:17 (спустя 1 час 30 минут)

[Q] 

Отличный сериал! Есть информация о том, как часто выходят серии?
Автору топика спасибо! отличное качество и неплохой перевод, главное, что есть оригинал и субтитры на английском.
Третья серия не хочет качаться =(
[Профиль]  [ЛС] 

IgorWOO

Корсар

Пост 16-Июл-2015 15:02 (спустя 6 дней)

[Q] 

А 4 скоро будет в подобном качестве, а то скачал другую раздачу и выключил сразу)?
[Профиль]  [ЛС] 

TERMOS ®

Легенда

12063

Пост 16-Июл-2015 18:21 (спустя 3 часа)

[Q] 

Добавлена 4-я серия. Одноголосое озвучивание (студии Кубик в Кубе) в 3 серии заменено на двухголосое. Обновите торрент-файл!
IgorWOO, ad

_________________
[Профиль]  [ЛС] 

Nostromizer

Морской Волк

Пост 16-Июл-2015 22:31 (спустя 4 часа)

[Q] 

Благодарю! Всем качать!!!

_________________
Mark It Zero!
[Профиль]  [ЛС] 

TERMOS ®

Легенда

12063

Пост 16-Июл-2015 23:45 (спустя 1 час 14 минут)

[Q] 

Nostromizer, на здоровье!

_________________
[Профиль]  [ЛС] 

Hippopotam

Корсар

Пост 20-Июл-2015 23:15 (спустя 3 дня)

[Q] 

Сердечное спасибо за раздачу Автору респект!!!
[Профиль]  [ЛС] 

TERMOS ®

Легенда

12063

Пост 25-Июл-2015 22:13 (спустя 4 дня)

[Q] 

Добавлена 5-я серия. Обновите торрент-файл!

_________________
[Профиль]  [ЛС] 

Magun

Лоцман

Пост 02-Авг-2015 13:38 (спустя 7 дней)

[Q] 

а 6-ая серия будет?
[Профиль]  [ЛС] 

TERMOS ®

Легенда

12063

Пост 02-Авг-2015 20:12 (спустя 6 часов)

[Q] 

Добавлена 6-я серия. Обновите торрент-файл!

_________________
[Профиль]  [ЛС] 

TERMOS ®

Легенда

12063

Пост 08-Авг-2015 21:28 (спустя 6 дней)

[Q] 

Добавлена 7-я серия. Обновите торрент-файл!

_________________
[Профиль]  [ЛС] 

EDVAR

Легенда

Пост 09-Авг-2015 20:27 (спустя 22 часа)

[Q] 

Понравился сериал.Спасибо!

_________________
"Как других судить-вы судьи.Как себя-вы адвокаты"
[Профиль]  [ЛС] 

TERMOS ®

Легенда

12063

Пост 25-Авг-2015 23:47 (спустя 16 дней)

[Q] 

Добавлена 8-я серия. Финал сезона! Обновите торрент-файл!

_________________
[Профиль]  [ЛС] 

WhyNA

Шкипер

Пост 04-Сен-2015 14:54 (спустя 9 дней)

[Q] 

Сериал отменный Всем качать!!!

_________________
И когда он снял вторую печать, я слышал второе животное, говорящее: иди и смотри. И вышел другой конь, рыжий; и сидящему на нем дано взять мир с земли, и чтобы убивали друг друга; и дан ему большой меч.
(Откр.6:3-4)
[Профиль]  [ЛС] 
Показать сообщения:    
Ответить на тему

Текущее время: Сегодня 14:48

Часовой пояс: GMT + 4



Вы не можете начинать темы
Вы не можете отвечать на сообщения
Вы не можете редактировать свои сообщения
Вы не можете удалять свои сообщения
Вы не можете голосовать в опросах
Вы не можете прикреплять файлы к сообщениям
Вы не можете скачивать файлы

▼ Вниз