ML
     
  Уважаемый Гость!
Вы можете поддержать проект и зарегистрироваться у наших партнеров - онлайн-стратегия MyLands. При регистрации в игре Вы получите код, который сможете активировать после регистрации на pirat.ca и получить 1000 дублонов.

Ваш код:
8b752b428cf60a012c159dcae592cd1392170115
 
     

Зверинец / Zoo / Сезон: 1 / Серии: 1-13 из 13 (Стивен А. Эделсон / Steven A. Adelson, Брэд Андерсон / Brad Anderson, Майкл Кэтлман / Michael Katleman) [2015 г., триллер, драма, WEB-DL, 720p] MVO (BaibaKo) + Original (Eng) [Полный]

Ответить на тему
 
Автор
Сообщение

Пост 02-Июл-2015 11:01

[Q] 

LPPI

-Зверинец / Zoo- Производство: США, CBS Television Studios, James Patterson Entertainment, Midnight Radio
Жанр: триллер, драма
Год выпуска: 2015 г.-Озвучка:
Перевод: Профессиональный (многоголосый, закадровый)
Оригинальный аудиопоток: английский-Сезон: 1
Серии: 13 из 13 серий
Продолжительность: ~ 00:42:00 мин серия-Режиссер: Стивен А. Эделсон / Steven A. Adelson, Брэд Андерсон / Brad Anderson, Майкл Кэтлман / Michael Katleman
В ролях: Нора Арнезедер, Билли Бёрк, Джеймс Волк, Билли Слотер, Николь Барре, Марлен Б. Расселл, Сэди Энтони, Валери Бретт, Жасмин Шерами, Джулитта Пурсио и др.-Описание: В центре сюжета — зоолог Джексон Оз, отвергающий общепринятые взгляды. Находясь в экспедиции в Африке, он начинает замечать странное поведение животных. Когда действия зверей становятся продуманными, скоординированными и приобретают свирепый характер, Оз приступает к поиску разгадки странной пандемии. Пока на планете еще остались места, где человек может укрыться от агрессии братьев меньших…- -Качество видео: WEB-DL
Контейнер: MKV
Стандарт разрешения: 720p
Видео кодек: MPEG4 AVC
Аудио кодек: AC3
Видео: 1280x720 (16:9), 23.976 fps, ~3 925 Kbps, 0.178 bit/pix
Аудио: Russian: AC3, 384 kbps, 6 ch, 48 kHz
Аудио #2: English: AC3, 384 kbps, 6 ch, 48 kHz
Cубтитры: отсутствуют-
1. Первая кровь
2. Бежать или бороться
3. Молчание цикад
4. Мышление стаи
5. Вините во всем Лео
6. Вот как это звучит
7. Медведи
8. Сыр остается один
9. Мурмурация
10. Заразительные эмоции
11. Ест, стреляет и уходит
12. Дикие штучки
13. Холм большой надежды
General
Unique ID : 185278633160491656481924967406904819157 (0x8B635DE45E9B31BF978D0105BD443DD5)
Complete name : C:\Users\Ivan\Desktop\Зверинец S1 2015 HD720p WEB-DL\Zoo.s01e01.HD720p.WEB-DL.Rus.Eng.BaibaKo.tv.mkv
Format : Matroska
Format version : Version 4 / Version 2
File size : 1.40 GiB
Duration : 41mn 46s
Overall bit rate : 4 788 Kbps
Encoded date : UTC 2015-07-01 22:26:40
Writing application : mkvmerge v8.1.0 ('Psychedelic Postcard') 64bit
Writing library : libebml v1.3.1 + libmatroska v1.4.2
DURATION : 00:41:46.656000000
NUMBER_OF_FRAMES : 78333
NUMBER_OF_BYTES : 120319488
_STATISTICS_WRITING_APP : mkvmerge v8.1.0 ('Psychedelic Postcard') 64bit
_STATISTICS_WRITING_DATE_UT : 2015-07-01 22:26:40
_STATISTICS_TAGS : BPS DURATION NUMBER_OF_FRAMES NUMBER_OF_BYTES
Video
ID : 1
Format : AVC
Format/Info : Advanced Video Codec
Format profile : [email protected]
Format settings, CABAC : No
Format settings, ReFrames : 2 frames
Codec ID : V_MPEG4/ISO/AVC
Duration : 41mn 46s
Bit rate : 3 925 Kbps
Width : 1 280 pixels
Height : 720 pixels
Display aspect ratio : 16:9
Frame rate mode : Constant
Frame rate : 23.976 fps
Color space : YUV
Chroma subsampling : 4:2:0
Bit depth : 8 bits
Scan type : Progressive
Bits/(Pixel*Frame) : 0.178
Stream size : 1.15 GiB (82%)
Language : English
Default : Yes
Forced : No
Color range : Limited
Color primaries : BT.709
Transfer characteristics : BT.709
Matrix coefficients : BT.709
Audio #1
ID : 2
Format : AC-3
Format/Info : Audio Coding 3
Mode extension : CM (complete main)
Format settings, Endianness : Big
Codec ID : A_AC3
Duration : 41mn 46s
Bit rate mode : Constant
Bit rate : 384 Kbps
Channel(s) : 6 channels
Channel positions : Front: L C R, Side: L R, LFE
Sampling rate : 48.0 KHz
Compression mode : Lossy
Stream size : 115 MiB (8%)
Language : Russian
Default : Yes
Forced : No
Audio #2
ID : 3
Format : AC-3
Format/Info : Audio Coding 3
Mode extension : CM (complete main)
Format settings, Endianness : Big
Codec ID : A_AC3
Duration : 41mn 46s
Bit rate mode : Constant
Bit rate : 384 Kbps
Channel(s) : 6 channels
Channel positions : Front: L C R, Side: L R, LFE
Sampling rate : 48.0 KHz
Compression mode : Lossy
Stream size : 115 MiB (8%)
Language : English
Default : No
Forced : No
-Скриншоты:---Добавлена 13 серия первого сезона-Доступно благодаря группе: Не забываем говорить -
Download / Скачать

Хотите скачать бесплатно? Зарегистрируйтесь на сайте (ссылка на регистрацию). Pirat.ca - самый быстрый торрент трекер в рунете!

Как скачивать  ·   Что такое торрент  ·   Рейтинг и ограничения



Последний раз редактировалось: LPPI (2015-09-17 19:33), всего редактировалось 11 раз(а)

Пост 02-Июл-2015 18:25 (спустя 7 часов)

Топик был перенесен из форума Зарубежные сериалы (Трюм) в форум Сериалы в эфире
Андря
 

XMax

Флибустьер

Пост 03-Июл-2015 17:05 (спустя 1 день 6 часов)

[Q] 

Чет как-то уныло... Сюжет недоразвит...
На любителя Автору респект!!!
[Профиль]  [ЛС] 

moedag

Лоцман

Пост 04-Июл-2015 11:17 (спустя 18 часов)

[Q] 

Дай скачать, пожалуйста.
[Профиль]  [ЛС] 

a_barat

Гроза морей

3249

Пост 06-Июл-2015 14:42 (спустя 2 дня 3 часа)

[Q] 

Посмотрим, что там такого унылого, в милых зверюшках...
rum
Вот, навеяло: https://www.youtube.com/watch?v=_KkOJhXgY-Q
Раздающему респект!

_________________
This message represents an official view of the voices in my head af
[Профиль]  [ЛС] 

Chezare

Лоцман

Пост 09-Июл-2015 19:07 (спустя 3 дня)

[Q] 

Продолжение будет?
[Профиль]  [ЛС] 

LPPI ®

137534

Пост 16-Июл-2015 17:55 (спустя 6 дней)

[Q] 

Добавлена 2 и 3 серия первого сезона
[Профиль]  [ЛС] 

LPPI ®

137534

Пост 24-Июл-2015 13:44 (спустя 7 дней)

[Q] 

Добавлена 4 серия первого сезона
[Профиль]  [ЛС] 

LPPI ®

137534

Пост 30-Июл-2015 22:50 (спустя 6 дней)

[Q] 

Добавлена 5 серия первого сезона
[Профиль]  [ЛС] 

LPPI ®

137534

Пост 06-Авг-2015 15:43 (спустя 6 дней)

[Q] 

Добавлена 6 серия первого сезона
[Профиль]  [ЛС] 

LPPI ®

137534

Пост 14-Авг-2015 16:04 (спустя 8 дней)

[Q] 

Добавлена 7 серия первого сезона
[Профиль]  [ЛС] 

Pesok

Гроза морей

Пост 16-Авг-2015 01:38 (спустя 1 день 9 часов)

[Q] 

спасибо с бочкой! Прикольная идея с живностью

_________________
[Профиль]  [ЛС] 

LPPI ®

137534

Пост 20-Авг-2015 19:05 (спустя 4 дня)

[Q] 

Добавлена 8 серия первого сезона
[Профиль]  [ЛС] 

LPPI ®

137534

Пост 27-Авг-2015 12:48 (спустя 6 дней)

[Q] 

Добавлена 9 серия первого сезона
[Профиль]  [ЛС] 

LPPI ®

137534

Пост 03-Сен-2015 16:27 (спустя 7 дней)

[Q] 

Добавлена 10 серия первого сезона
[Профиль]  [ЛС] 

LPPI ®

137534

Пост 10-Сен-2015 11:53 (спустя 6 дней)

[Q] 

Добавлена 11 серия первого сезона
[Профиль]  [ЛС] 

LPPI ®

137534

Пост 11-Сен-2015 13:58 (спустя 1 день 2 часа)

[Q] 

Добавлена 12 серия первого сезона
[Профиль]  [ЛС] 

a_barat

Гроза морей

3249

Пост 11-Сен-2015 21:07 (спустя 7 часов)

[Q] 

Автору респект!!! Пиратка рулез!!!
И ваще всё нитяк и пучком!!!

_________________
This message represents an official view of the voices in my head af
[Профиль]  [ЛС] 

LPPI ®

137534

Пост 17-Сен-2015 19:33 (спустя 5 дней)

[Q] 

Добавлена 13 серия первого сезона
[Профиль]  [ЛС] 

VIRGIN

Штурман

41

Пост 22-Сен-2015 17:09 (спустя 4 дня)

[Q] 

"Провисела" у меня скачка на 10 процентах дня три наверное, потом удалил я ее Раздавать будем или как? . Скачал с другой раздачи!

_________________
Рожденный в СССР...
[Профиль]  [ЛС] 

makarsss

Лоцман

Пост 27-Сен-2015 08:46 (спустя 4 дня)

[Q] 

раздавать наверное не будут((( an
[Профиль]  [ЛС] 

UGR

Морской Волк

Пост 29-Сен-2015 20:51 (спустя 2 дня 12 часов)

[Q] 

94%
висим уже неделю....
раздал уже 40 гигов а полного источника так и нет.............
[Профиль]  [ЛС] 

UGR

Морской Волк

Пост 13-Дек-2015 03:10 (спустя 2 месяца 13 дней)

[Q] 

Раздавать будем или как? Автор вернись тебя нет уже месяц((
[Профиль]  [ЛС] 

янка-сан

Гроза морей

Пост 17-Дек-2015 20:23 (спустя 4 дня)

[Q] 

Автору респект!!! ожидала большего(
[Профиль]  [ЛС] 
Показать сообщения:    
Ответить на тему

Текущее время: Сегодня 06:20

Часовой пояс: GMT + 4



Вы не можете начинать темы
Вы не можете отвечать на сообщения
Вы не можете редактировать свои сообщения
Вы не можете удалять свои сообщения
Вы не можете голосовать в опросах
Вы не можете прикреплять файлы к сообщениям
Вы не можете скачивать файлы

▼ Вниз