ML
     
  Уважаемый Гость!
Вы можете поддержать проект и зарегистрироваться у наших партнеров - онлайн-стратегия MyLands. При регистрации в игре Вы получите код, который сможете активировать после регистрации на pirat.ca и получить 1000 дублонов.

Ваш код:
e6008d9811a0b6a1393c3dc51ecd7bc35637bc21
 
     

За пределами / Extant / Сезон: 2 / Серии: 1-13 из 13 (Дэн Лернер / Dan Lerner, Кристин Мур / Christine Moore, Адам Аркин / Adam Arkin) [2015 г., фантастика, триллер, драма, WEB-DLRip] MVO (BaibaKo) + Original (Eng) [Полный]

Ответить на тему
 
Автор
Сообщение

Пост 03-Июл-2015 20:49

[Q] 

LPPI

-За пределами / Extant- Производство: США, 22 Plates, Amblin Television, CBS Television Studios
Жанр: фантастика, триллер, драма
Год выпуска: 2015 г.-Озвучка:
Перевод: Профессиональный (многоголосый, закадровый)
Оригинальный аудиопоток: английский-Сезон: 2
Серии: 13 из 13 серий
Продолжительность: ~ 00:42:00 мин серия-Режиссер: Дэн Лернер / Dan Lerner, Кристин Мур / Christine Moore, Адам Аркин / Adam Arkin
В ролях: Брэд Бейер, Холли Берри, Горан Вишнич, Пирс Гэнон, Камрин Менхейм, Тайлер Хилтон, Серджо Харфорд, Грэйс Гаммер, Майкл О’Нил, Жанетта Арнетт-Описание: Молли Уотс только что вернулась домой из 13-месячной одиночной космической экспедиции. Все это время женщина-астронавт провела на космической станции совершенно одна. И от того совершенно немыслимым кажется ей известие о том, что она беременна. Как это могло произойти? Что теперь будет с семьей Молли — ее мужем Джоном и сыном-андроидом Итаном? И как это невероятное событие повлияет на ход истории всего человечества?
Главную роль в сериале «За пределами» исполнила оскароносная актриса Холли Берри, которая также выступила в качестве исполнительного продюсера вместе со Стивеном Спилбергом.- -Качество видео: WEB-DLRip
Контейнер: AVI
Видео кодек: XviD
Аудио кодек: MP3
Видео: 720x400 (1.80:1), 23.976 fps, XviD build 50 ~1537 kbps avg, 0.22 bit/pixel
Аудио: Russian: 48 kHz, MPEG Layer 3, 2 ch, ~192.00 kbps avg
Аудио #2: English: 48 kHz, MPEG Layer 3, 2 ch, ~192.00 kbps avg
Cубтитры: отсутствуют-
1. Смена сценария
2. Морфоз
3. Сочувствие дьяволу
4. Взломать код
5. Новый рубеж
6. Говоришь, тебе нужна эволюция
7. Другие
8. Оружие и хуманик
9. Другая сторона
10. Не убивайте гонца
11. Цугцванг
12. Двойной взгляд
13. Высшее благо (Финал сезона)
General
Complete name : C:\Users\Ivan\Desktop\За пределами S2 (2015) [WEB-DLRip] (BaibaKo)\Extant.s02e01.WEB-DLRip.XviD.Rus.Eng.BaibaKo.tv.avi
Format : AVI
Format/Info : Audio Video Interleave
File size : 601 MiB
Duration : 43mn 23s
Overall bit rate : 1 936 Kbps
Writing application : VirtualDubMod 1.5.10.2 (build 2540/release)
Writing library : VirtualDubMod build 2540/release
Video
ID : 0
Format : MPEG-4 Visual
Format profile : Advanced [email protected]
Format settings, BVOP : 2
Format settings, QPel : No
Format settings, GMC : No warppoints
Format settings, Matrix : Default (H.263)
Codec ID : XVID
Codec ID/Hint : XviD
Duration : 43mn 23s
Bit rate : 1 538 Kbps
Width : 720 pixels
Height : 400 pixels
Display aspect ratio : 16:9
Frame rate : 23.976 fps
Color space : YUV
Chroma subsampling : 4:2:0
Bit depth : 8 bits
Scan type : Progressive
Compression mode : Lossy
Bits/(Pixel*Frame) : 0.223
Stream size : 477 MiB (79%)
Writing library : XviD 1.2.1 (UTC 2008-12-04)
Audio #1
ID : 1
Format : MPEG Audio
Format version : Version 1
Format profile : Layer 3
Mode : Joint stereo
Mode extension : MS Stereo
Codec ID : 55
Codec ID/Hint : MP3
Duration : 43mn 23s
Bit rate mode : Constant
Bit rate : 192 Kbps
Channel(s) : 2 channels
Sampling rate : 48.0 KHz
Compression mode : Lossy
Stream size : 59.6 MiB (10%)
Alignment : Aligned on interleaves
Interleave, duration : 42 ms (1.00 video frame)
Interleave, preload duratio : 504 ms
Audio #2
ID : 2
Format : MPEG Audio
Format version : Version 1
Format profile : Layer 3
Mode : Joint stereo
Mode extension : MS Stereo
Codec ID : 55
Codec ID/Hint : MP3
Duration : 43mn 23s
Bit rate mode : Constant
Bit rate : 192 Kbps
Channel(s) : 2 channels
Sampling rate : 48.0 KHz
Compression mode : Lossy
Stream size : 59.6 MiB (10%)
Alignment : Aligned on interleaves
Interleave, duration : 42 ms (1.00 video frame)
Interleave, preload duratio : 504 ms
-Скриншоты:---Добавлена 13 серия второго сезона-Доступно благодаря группе: Не забываем говорить -
Download / Скачать

Хотите скачать бесплатно? Зарегистрируйтесь на сайте (ссылка на регистрацию). Pirat.ca - самый быстрый торрент трекер в рунете!

Как скачивать  ·   Что такое торрент  ·   Рейтинг и ограничения



Последний раз редактировалось: LPPI (2015-09-12 17:34), всего редактировалось 11 раз(а)

LPPI ®

137543

Пост 17-Июл-2015 20:47 (спустя 13 дней)

[Q] 

Добавлена 2 и 3 серия второго сезона
[Профиль]  [ЛС] 

LPPI ®

137543

Пост 25-Июл-2015 12:15 (спустя 7 дней)

[Q] 

Добавлена 4 серия второго сезона
[Профиль]  [ЛС] 

DAEDMAN

Флибустьер

Пост 25-Июл-2015 12:29 (спустя 14 минут)

[Q] 

ПОДДЕРЖУ Гостем давай…ГОСТЕМ!
[Профиль]  [ЛС] 

zvezda_2s

Корсар

Пост 25-Июл-2015 18:00 (спустя 5 часов)

[Q] 

Чего только не придумают...
[Профиль]  [ЛС] 

LPPI ®

137543

Пост 31-Июл-2015 20:40 (спустя 6 дней)

[Q] 

Добавлена 5 серия второго сезона
[Профиль]  [ЛС] 

LPPI ®

137543

Пост 07-Авг-2015 22:47 (спустя 7 дней)

[Q] 

Добавлена 6 серия второго сезона
[Профиль]  [ЛС] 

alex_dry

Гроза морей

Пост 08-Авг-2015 22:19 (спустя 23 часа)

[Q] 

Интересно, интересно... Спасибо, посмотрим!
[Профиль]  [ЛС] 

EDVAR

Легенда

Пост 09-Авг-2015 20:33 (спустя 22 часа)

[Q] 

Надо глянуть,может понравится.Благодарен!

_________________
"Как других судить-вы судьи.Как себя-вы адвокаты"
[Профиль]  [ЛС] 

LPPI ®

137543

Пост 10-Авг-2015 08:08 (спустя 11 часов)

[Q] 

Добавлена 7 серия второго сезона
[Профиль]  [ЛС] 

LPPI ®

137543

Пост 14-Авг-2015 16:49 (спустя 4 дня)

[Q] 

Добавлена 8 серия второго сезона
[Профиль]  [ЛС] 

LPPI ®

137543

Пост 21-Авг-2015 11:23 (спустя 6 дней)

[Q] 

Добавлена 9 серия второго сезона
[Профиль]  [ЛС] 

LPPI ®

137543

Пост 28-Авг-2015 21:07 (спустя 7 дней)

[Q] 

Добавлена 10 серия второго сезона
[Профиль]  [ЛС] 

LPPI ®

137543

Пост 04-Сен-2015 08:59 (спустя 6 дней)

[Q] 

Добавлена 11 серия второго сезона
[Профиль]  [ЛС] 

LPPI ®

137543

Пост 11-Сен-2015 08:31 (спустя 6 дней)

[Q] 

Добавлена 12 серия второго сезона
[Профиль]  [ЛС] 

homa-roma

Шкипер

Пост 11-Сен-2015 10:22 (спустя 1 час 51 минута)

[Q] 

чет не понял а при чем тут "под куполом"
[Профиль]  [ЛС] 

LPPI ®

137543

Пост 12-Сен-2015 17:34 (спустя 1 день 7 часов)

[Q] 

Добавлена 13 серия второго сезона
[Профиль]  [ЛС] 
Показать сообщения:    
Ответить на тему

Текущее время: Сегодня 02:02

Часовой пояс: GMT + 4



Вы не можете начинать темы
Вы не можете отвечать на сообщения
Вы не можете редактировать свои сообщения
Вы не можете удалять свои сообщения
Вы не можете голосовать в опросах
Вы не можете прикреплять файлы к сообщениям
Вы не можете скачивать файлы

▼ Вниз