ML
     
  Уважаемый Гость!
Вы можете поддержать проект и зарегистрироваться у наших партнеров - онлайн-стратегия MyLands. При регистрации в игре Вы получите код, который сможете активировать после регистрации на pirat.ca и получить 1000 дублонов.

Ваш код:
e93cd9e43017f251127f220889864c05934e61c6
 
     

Мистер Робот / Mr. Robot / Сезон: 1 / Серии: 1-10 из 10 (Нильс Арден Оплев / Niels Arden Oplev) [2015 г., драма, криминал, WEB-DLRip] MVO (BaibaKo) + Original (Eng) [Полный]

Ответить на тему
 
Автор
Сообщение

Пост 03-Июл-2015 20:58

[Q] 

LPPI

-Мистер Робот / Mr. Robot- Производство: США, Universal Cable Productions
Жанр: драма, криминал
Год выпуска: 2015 г.-Озвучка:
Перевод: Профессиональный (многоголосый, закадровый)
Оригинальный аудиопоток: английский-Сезон: 1
Серии: 10 из 10 серий
Продолжительность: ~ 00:60:00 мин серия-Режиссер: Нильс Арден Оплев / Niels Arden Oplev
В ролях: Рэми Малек, Брюс Олтмен, Майкл Бушеми, Карли Чаикин, Самрат Чакрабарти, Портия Даблдэй, Маурицио Ферриньо, Майкл Гилл, Джереми С. Холм, Диллон Мэтьюз-Описание: История молодого программиста Эллиота, страдающего диссоциальным расстройством личности и решившего, что единственный приемлемый для него способ взаимодействия с людьми — это профессия хакера. Таким образом, он быстро оказывается в том самом месте, где пересекаются интересы его работодателя — фирмы, занимающейся кибербезопасностью, — и подпольных организаций, которые пытаются его завербовать с целью обрушения самых могучих американских корпораций.- -Качество видео: WEB-DLRip
Контейнер: AVI
Видео кодек: XviD
Аудио кодек: MP3
Видео: 720x400 (1.80:1), 23.976 fps, XviD build 50 ~2016 kbps avg, 0.29 bit/pixel
Аудио: Russian: 48 kHz, MPEG Layer 3, 2 ch, ~192.00 kbps avg
Аудио #2: English: 48 kHz, MPEG Layer 3, 2 ch, ~192.00 kbps avg
Cубтитры: отсутствуют-
1. eps1.0.здравствуйдруг.mov
2. eps1.1 единицы-и-нули.mpeg
3. eps1.2 d3bug.mkv
4. eps1.3 da3m0ns.mp4
5. eps1.4 3xpl0its.wmv
6. eps1.5 храб|>ый-/7утник.asf
7. eps1.6 |/|сходнb|й.к0д.flv
8. eps1.7 беJIаяр0за.m4v
9. eps1.8 0тра}|{ение.qt
10. eps1.9 1.денb-zer0.avi
General
Complete name : C:\Users\Ivan\Desktop\Мистер Робот S1 (2015) [WEB-DLRip] (BaibaKo)\Mr.Robot.s01e01.WEB-DLRip.XviD.Rus.Eng.BaibaKo.tv.avi
Format : AVI
Format/Info : Audio Video Interleave
File size : 1.09 GiB
Duration : 1h 4mn
Overall bit rate : 2 416 Kbps
Writing application : VirtualDubMod 1.5.10.2 (build 2540/release)
Writing library : VirtualDubMod build 2540/release
Video
ID : 0
Format : MPEG-4 Visual
Format profile : Advanced [email protected]
Format settings, BVOP : 2
Format settings, QPel : No
Format settings, GMC : No warppoints
Format settings, Matrix : Default (H.263)
Codec ID : XVID
Codec ID/Hint : XviD
Duration : 1h 4mn
Bit rate : 2 018 Kbps
Width : 720 pixels
Height : 400 pixels
Display aspect ratio : 16:9
Frame rate : 23.976 fps
Color space : YUV
Chroma subsampling : 4:2:0
Bit depth : 8 bits
Scan type : Progressive
Compression mode : Lossy
Bits/(Pixel*Frame) : 0.292
Stream size : 936 MiB (84%)
Writing library : XviD 1.2.1 (UTC 2008-12-04)
Audio #1
ID : 1
Format : MPEG Audio
Format version : Version 1
Format profile : Layer 3
Mode : Joint stereo
Mode extension : MS Stereo
Codec ID : 55
Codec ID/Hint : MP3
Duration : 1h 4mn
Bit rate mode : Constant
Bit rate : 192 Kbps
Channel(s) : 2 channels
Sampling rate : 48.0 KHz
Compression mode : Lossy
Stream size : 89.1 MiB (8%)
Alignment : Aligned on interleaves
Interleave, duration : 42 ms (1.00 video frame)
Interleave, preload duratio : 504 ms
Audio #2
ID : 2
Format : MPEG Audio
Format version : Version 1
Format profile : Layer 3
Mode : Joint stereo
Mode extension : MS Stereo
Codec ID : 55
Codec ID/Hint : MP3
Duration : 1h 4mn
Bit rate mode : Constant
Bit rate : 192 Kbps
Channel(s) : 2 channels
Sampling rate : 48.0 KHz
Compression mode : Lossy
Stream size : 89.1 MiB (8%)
Alignment : Aligned on interleaves
Interleave, duration : 42 ms (1.00 video frame)
Interleave, preload duratio : 504 ms
-Скриншоты:---Добавлена 10 серия первого сезона-Доступно благодаря группе: Не забываем говорить -
Download / Скачать

Хотите скачать бесплатно? Зарегистрируйтесь на сайте (ссылка на регистрацию). Pirat.ca - самый быстрый торрент трекер в рунете!

Как скачивать  ·   Что такое торрент  ·   Рейтинг и ограничения



Последний раз редактировалось: LPPI (2015-09-06 11:33), всего редактировалось 8 раз(а)

LPPI ®

137534

Пост 04-Июл-2015 18:23 (спустя 21 час)

[Q] 

Добавлена 2 серия первого сезона
[Профиль]  [ЛС] 

LPPI ®

137534

Пост 15-Июл-2015 21:11 (спустя 11 дней)

[Q] 

Добавлена 3 серия первого сезона
[Профиль]  [ЛС] 

LPPI ®

137534

Пост 18-Июл-2015 10:07 (спустя 2 дня 12 часов)

[Q] 

Добавлена 4 серия первого сезона
[Профиль]  [ЛС] 

Михалыч9966

Морской Волк

Пост 22-Июл-2015 12:50 (спустя 4 дня)

[Q] 

Я конечно все понимаю, кругом засилье гомосексуализма, но в сериале показывать как мужики шпиляться- это уже не перебор, это просто матом надо писать. Сериал-то довольно приличный, ну нафига смешивать говномес с хакерством- не понятно в корне, на что рассчитывали создатели сериала? Неужели нормальный адекватный режиссер станет снимать чпокающихся геев? Отсюда логично предположить, что этим могут заниматься только заднеприводные. Ладно, когда старпер признался, что он "не такой", я бы еще одного стерпел, но когда второй спалился в клубе и долбанулся в десны с мужиком, это уже меня конкретно насторожило, а уж когда дело по глине пошло, то все, терпение кончилось. Хоть бы предупреждали в описании, типа "18+,много геев, и т.д." Короче, решил в кои-то веки сериал посмотреть, а нарвался на блевотину, кто гомиков не любит- дальше второй серии крайне не рекомендую к просмотру. Спасибо!!! Трафик потрачен зря!
[Профиль]  [ЛС] 

LPPI ®

137534

Пост 30-Июл-2015 09:50 (спустя 7 дней)

[Q] 

Добавлена 5 серия первого сезона
[Профиль]  [ЛС] 

LPPI ®

137534

Пост 09-Авг-2015 11:36 (спустя 10 дней)

[Q] 

Добавлена 6 и 7 серия первого сезона
[Профиль]  [ЛС] 

EDVAR

Легенда

Пост 09-Авг-2015 20:16 (спустя 8 часов)

[Q] 

Благодарю!Посмотрим.

_________________
"Как других судить-вы судьи.Как себя-вы адвокаты"
[Профиль]  [ЛС] 

LPPI ®

137534

Пост 16-Авг-2015 21:50 (спустя 7 дней)

[Q] 

Добавлена 8 серия первого сезона
[Профиль]  [ЛС] 

LPPI ®

137534

Пост 22-Авг-2015 11:58 (спустя 5 дней)

[Q] 

Добавлена 9 серия первого сезона
[Профиль]  [ЛС] 

LPPI ®

137534

Пост 06-Сен-2015 11:33 (спустя 14 дней)

[Q] 

Добавлена 10 серия первого сезона
[Профиль]  [ЛС] 
Показать сообщения:    
Ответить на тему

Текущее время: Сегодня 04:26

Часовой пояс: GMT + 4



Вы не можете начинать темы
Вы не можете отвечать на сообщения
Вы не можете редактировать свои сообщения
Вы не можете удалять свои сообщения
Вы не можете голосовать в опросах
Вы не можете прикреплять файлы к сообщениям
Вы не можете скачивать файлы

▼ Вниз