ML
     
  Уважаемый Гость!
Вы можете поддержать проект и зарегистрироваться у наших партнеров - онлайн-стратегия MyLands. При регистрации в игре Вы получите код, который сможете активировать после регистрации на pirat.ca и получить 1000 дублонов.

Ваш код:
cc3be08b7507661c03e0a2f582d0da3a659ea55a
 
     

Тутанхамон (Тут) / Tut / Сезон: 1 / Серии: 1-6 из 6 (Дэвид Фон Энкен / David Von Ancken) [2015 г., драма, биография, история, WEB-DLRip] MVO (BaibaKo) + Original (Eng) [Полный]

Ответить на тему
 
Автор
Сообщение

Пост 22-Июл-2015 11:16

[Q] 

LPPI

-Тутанхамон (Тут) / Tut- Производство: Канада, Muse Entertainment Enterprises
Жанр: драма, биография, история
Год выпуска: 2015 г.-Озвучка:
Перевод: Профессиональный (многоголосый, закадровый)
Оригинальный аудиопоток: английский-Сезон: 1
Серии: 6 из 6 серий
Продолжительность: ~ 00:43:00 мин серия-Режиссер: Дэвид Фон Энкен / David Von Ancken
В ролях: Бен Кингсли, Эван Джогиа, Нонсо Анози, Сибилла Дин, Александр Сиддиг, Кайли Банбери, Питер Гадиот, Иддо Голдберг, Алистэр Туви, Сайлас Карсон-Описание: Мини-сериал рассказывает о восхождении к власти Тутанхамона, о его попытках править разобщенной империей, и о тайне, покрывшей историю его смерти.- -Качество видео: WEB-DLRip
Контейнер: AVI
Видео кодек: XviD
Аудио кодек: MP3
Видео: 720x400 (1.80:1), 23.976 fps, XviD build 50 ~1509 kbps avg, 0.22 bit/pixel
Аудио: Russian: 48 kHz, MPEG Layer 3, 2 ch, ~192.00 kbps avg
Аудио #2: English: 48 kHz, MPEG Layer 3, 2 ch, ~192.00 kbps avg
Cубтитры: отсутствуют-
1. Часть первая: Власть
2. Часть вторая: Предательство
3. Часть третья: Судьба
4.
5.
6.
General
Complete name : C:\Users\Ivan\Desktop\Тутанхамон S1 (2015) [WEB-DLRip] (BaibaKo)\TUT.s01e01.WEB-DLRip.XviD.Rus.Eng.BaibaKo.tv.avi
Format : AVI
Format/Info : Audio Video Interleave
File size : 681 MiB
Duration : 49mn 54s
Overall bit rate : 1 908 Kbps
Writing application : VirtualDubMod 1.5.10.2 (build 2540/release)
Writing library : VirtualDubMod build 2540/release
Video
ID : 0
Format : MPEG-4 Visual
Format profile : Advanced [email protected]
Format settings, BVOP : 2
Format settings, QPel : No
Format settings, GMC : No warppoints
Format settings, Matrix : Default (H.263)
Codec ID : XVID
Codec ID/Hint : XviD
Duration : 49mn 54s
Bit rate : 1 510 Kbps
Width : 720 pixels
Height : 400 pixels
Display aspect ratio : 16:9
Frame rate : 23.976 fps
Color space : YUV
Chroma subsampling : 4:2:0
Bit depth : 8 bits
Scan type : Progressive
Compression mode : Lossy
Bits/(Pixel*Frame) : 0.219
Stream size : 539 MiB (79%)
Writing library : XviD 1.2.1 (UTC 2008-12-04)
Audio #1
ID : 1
Format : MPEG Audio
Format version : Version 1
Format profile : Layer 3
Mode : Joint stereo
Mode extension : MS Stereo
Codec ID : 55
Codec ID/Hint : MP3
Duration : 49mn 54s
Bit rate mode : Constant
Bit rate : 192 Kbps
Channel(s) : 2 channels
Sampling rate : 48.0 KHz
Compression mode : Lossy
Stream size : 68.5 MiB (10%)
Alignment : Aligned on interleaves
Interleave, duration : 42 ms (1.00 video frame)
Interleave, preload duratio : 504 ms
Audio #2
ID : 2
Format : MPEG Audio
Format version : Version 1
Format profile : Layer 3
Mode : Joint stereo
Mode extension : MS Stereo
Codec ID : 55
Codec ID/Hint : MP3
Duration : 49mn 54s
Bit rate mode : Constant
Bit rate : 192 Kbps
Channel(s) : 2 channels
Sampling rate : 48.0 KHz
Compression mode : Lossy
Stream size : 68.5 MiB (10%)
Alignment : Aligned on interleaves
Interleave, duration : 42 ms (1.00 video frame)
Interleave, preload duratio : 504 ms
-Скриншоты:---Добавлена 5 и 6 серия (Финал) первого сезона-Доступно благодаря группе: Не забываем говорить -
Download / Скачать

Хотите скачать бесплатно? Зарегистрируйтесь на сайте (ссылка на регистрацию). Pirat.ca - самый быстрый торрент трекер в рунете!

Как скачивать  ·   Что такое торрент  ·   Рейтинг и ограничения



Последний раз редактировалось: LPPI (2015-07-25 14:31), всего редактировалось 2 раз(а)

LPPI ®

137546

Пост 22-Июл-2015 11:16 (спустя 8 секунд)

[Q] 

Добавлена 1 и 2 серия первого сезона
[Профиль]  [ЛС] 

Пост 23-Июл-2015 01:23 (спустя 14 часов)

Топик был перенесен из форума Зарубежные сериалы (Трюм) в форум Сериалы в эфире
Андря
 

LPPI ®

137546

Пост 24-Июл-2015 16:56 (спустя 2 дня 5 часов)

[Q] 

Добавлена 3 и 4 серия первого сезона
[Профиль]  [ЛС] 

x Z

Лоцман

Пост 24-Июл-2015 18:48 (спустя 1 час 52 минуты)

[Q] 

Спасибо!!! Супер! спасибо норм так
[Профиль]  [ЛС] 

LPPI ®

137546

Пост 25-Июл-2015 14:31 (спустя 19 часов)

[Q] 

Добавлена 5 и 6 серия (Финал) первого сезона
[Профиль]  [ЛС] 

Сумрак

1660

Пост 25-Июл-2015 19:40 (спустя 5 часов)

[Q] 

отличный исторический сериал ! жаль конечно что цари которые делали для народа всегда погибали рано

_________________
[Профиль]  [ЛС] 

Doctor-ZLO

Гроза морей

438

Пост 25-Июл-2015 21:21 (спустя 1 час 41 минута)

[Q] 

Спасибо!!! Посмотрю, а то смотреть не чего!!

_________________
[Профиль]  [ЛС] 

XMax

Флибустьер

Пост 26-Июл-2015 09:00 (спустя 11 часов)

[Q] 

За версту несет... не знаю ... какой-то дешевкой.
Автору респект!!! Пиратка рулит!
[Профиль]  [ЛС] 

haustx

Шкипер

Пост 29-Июл-2015 13:44 (спустя 3 дня)

[Q] 

первая серия у меня не открывается(
[Профиль]  [ЛС] 

Пост 20-Дек-2015 20:55 (спустя 4 месяца 22 дня)

Топик был перенесен из форума Сериалы в эфире в форум Зарубежные сериалы
erchine
 

balamutych 8

Шкипер

Пост 26-Ноя-2016 01:12 (спустя 1 год 3 месяца)

[Q] 

Красивый фильм,спасибо
[Профиль]  [ЛС] 
Показать сообщения:    
Ответить на тему

Текущее время: Сегодня 05:09

Часовой пояс: GMT + 4



Вы не можете начинать темы
Вы не можете отвечать на сообщения
Вы не можете редактировать свои сообщения
Вы не можете удалять свои сообщения
Вы не можете голосовать в опросах
Вы не можете прикреплять файлы к сообщениям
Вы не можете скачивать файлы

▼ Вниз