ML
     
  Уважаемый Гость!
Вы можете поддержать проект и зарегистрироваться у наших партнеров - онлайн-стратегия MyLands. При регистрации в игре Вы получите код, который сможете активировать после регистрации на pirat.ca и получить 1000 дублонов.

Ваш код:
a6d1ef7ff63e237add5a4c8b21d8aa937c5e9b4b
 
     

Осложнения (Сложности) / Complications / Сезон: 1 / Серии: 1-10 из 10 (Скотт Питерс / Scott Peters, Арвин Браун / Arvin Brown, Роджер Камбл / Roger Kumble) [2015 г., драма, WEB-DLRip] MVO (BaibaKo) + Original (Eng) [Полный]

Ответить на тему
 
Автор
Сообщение

Пост 24-Июл-2015 00:03

[Q] 

LPPI

-Осложнения (Сложности) / Complications- Производство: США, Flying Glass of Milk Productions, Fox 21
Жанр: драма
Год выпуска: 2015 г.-Озвучка:
Перевод: Профессиональный (многоголосый, закадровый)
Оригинальный аудиопоток: английский-Сезон: 1
Серии: 10 из 10 серий
Продолжительность: ~ 00:43:00 мин серия-Режиссер: Скотт Питерс / Scott Peters, Арвин Браун / Arvin Brown, Роджер Камбл / Roger Kumble
В ролях: Дэвид Эндрю Нэш, Альберт С. Бейтс, Анна Энгер, Линдси Гаррет, Кристин Хорн, Энтони К. Хайатт, Эрик Менденхолл, Рики Мьюз и др.-Описание: Доктор Джон Эллис считал свою жизнь устоявшейся до того момента, пока не оказался в центре бандитской перестрелки. Всё закончилось тем, что он спас мальчика, которого расстреляли из движущегося авто, а нападавшие были убиты.
Вскоре Эллис узнает, что мальчику всё ещё угрожает смертельная опасность, и решает, что обязан спасти его любой ценой…- -Качество видео: WEB-DLRip
Контейнер: AVI
Видео кодек: XviD
Аудио кодек: MP3
Видео: 720x400 (1.80:1), 23.976 fps, XviD build 50 ~764 kbps avg, 0.11 bit/pixel
Аудио: Russian: 48 kHz, MPEG Layer 3, 2 ch, ~192.00 kbps avg
Аудио #2: English: 48 kHz, MPEG Layer 3, 2 ch, ~192.00 kbps avg
Cубтитры: отсутствуют-
1. Пилот
2. Инфекция
3. Приступ
4. Имунная реакция
5. Начало заболевания
6. Диагноз
7. Жар
8. Рецидив
9. Ухудшение
10. Критическое состояние
General
Complete name : C:\Users\Ivan\Desktop\Осложнения S1 (2015) [WEB-DLRip] (BaibaKo)\Complications.S01E01.WEB-DLRip.XviD.Rus.Eng.BaibaKo.tv.avi
Format : AVI
Format/Info : Audio Video Interleave
File size : 531 MiB
Duration : 1h 3mn
Overall bit rate : 1 163 Kbps
Writing application : VirtualDubMod 1.5.10.3 | www.virtualdub-fr.org || (build 2550/release)
Writing library : VirtualDubMod build 2550/release
Video
ID : 0
Format : MPEG-4 Visual
Format profile : Advanced [email protected]
Format settings, BVOP : 2
Format settings, QPel : No
Format settings, GMC : No warppoints
Format settings, Matrix : Default (H.263)
Codec ID : XVID
Codec ID/Hint : XviD
Duration : 1h 3mn
Bit rate : 765 Kbps
Width : 720 pixels
Height : 400 pixels
Display aspect ratio : 16:9
Frame rate : 23.976 fps
Color space : YUV
Chroma subsampling : 4:2:0
Bit depth : 8 bits
Scan type : Progressive
Compression mode : Lossy
Bits/(Pixel*Frame) : 0.111
Stream size : 349 MiB (66%)
Writing library : XviD 1.2.1 (UTC 2008-12-04)
Audio #1
ID : 1
Format : MPEG Audio
Format version : Version 1
Format profile : Layer 3
Mode : Joint stereo
Mode extension : MS Stereo
Codec ID : 55
Codec ID/Hint : MP3
Duration : 1h 3mn
Bit rate mode : Constant
Bit rate : 192 Kbps
Channel(s) : 2 channels
Sampling rate : 48.0 KHz
Compression mode : Lossy
Stream size : 87.6 MiB (17%)
Alignment : Aligned on interleaves
Interleave, duration : 42 ms (1.00 video frame)
Interleave, preload duratio : 504 ms
Audio #2
ID : 2
Format : MPEG Audio
Format version : Version 1
Format profile : Layer 3
Mode : Joint stereo
Mode extension : MS Stereo
Codec ID : 55
Codec ID/Hint : MP3
Duration : 1h 3mn
Bit rate mode : Constant
Bit rate : 192 Kbps
Channel(s) : 2 channels
Sampling rate : 48.0 KHz
Compression mode : Lossy
Stream size : 87.6 MiB (17%)
Alignment : Aligned on interleaves
Interleave, duration : 42 ms (1.00 video frame)
Interleave, preload duratio : 504 ms
-Скриншоты:---Добавлена 10 серия первого сезона-Доступно благодаря группе: Не забываем говорить -
Download / Скачать

Хотите скачать бесплатно? Зарегистрируйтесь на сайте (ссылка на регистрацию). Pirat.ca - самый быстрый торрент трекер в рунете!

Как скачивать  ·   Что такое торрент  ·   Рейтинг и ограничения



Последний раз редактировалось: LPPI (2015-09-03 15:48), всего редактировалось 5 раз(а)

Пост 24-Июл-2015 03:20 (спустя 3 часа)

Топик был перенесен из форума Зарубежные сериалы (Трюм) в форум Сериалы в эфире
Андря
 

LPPI ®

137529

Пост 14-Авг-2015 16:51 (спустя 21 день)

[Q] 

Добавлена 2 серия первого сезона
[Профиль]  [ЛС] 

kloctuk

3287

Пост 14-Авг-2015 17:56 (спустя 1 час 4 минуты)

[Q] 

Комментарии, отзывы, хоть что-то?

_________________
-выстрели еще разок. -зачем? - его душа еще танцует...
[Профиль]  [ЛС] 

LPPI ®

137529

Пост 15-Авг-2015 22:20 (спустя 1 день 4 часа)

[Q] 

Добавлена 3 и 4 серия первого сезона
[Профиль]  [ЛС] 

NIKROLUNGER

Флибустьер

58

Пост 16-Авг-2015 10:53 (спустя 12 часов)

[Q] 

Посмотрел 2 серии, пока сложно сказать определённо, но кое-что интересное проглядывает.
Немного напоминает начало "ВО все тяжкие", там начало тоже не блистало, а вон как всё получилось =)
[Профиль]  [ЛС] 

LPPI ®

137529

Пост 16-Авг-2015 20:51 (спустя 9 часов)

[Q] 

Добавлена 5, 6 и 7 серия первого сезона
[Профиль]  [ЛС] 

LPPI ®

137529

Пост 27-Авг-2015 21:10 (спустя 11 дней)

[Q] 

Добавлена 8 и 9 серия первого сезона
[Профиль]  [ЛС] 

LPPI ®

137529

Пост 03-Сен-2015 15:48 (спустя 6 дней)

[Q] 

Добавлена 10 серия первого сезона
[Профиль]  [ЛС] 

Пост 03-Сен-2015 16:22 (спустя 33 минуты)

Топик был перенесен из форума Сериалы в эфире в форум Зарубежные сериалы
kugesan
 
Показать сообщения:    
Ответить на тему

Текущее время: Сегодня 13:36

Часовой пояс: GMT + 4



Вы не можете начинать темы
Вы не можете отвечать на сообщения
Вы не можете редактировать свои сообщения
Вы не можете удалять свои сообщения
Вы не можете голосовать в опросах
Вы не можете прикреплять файлы к сообщениям
Вы не можете скачивать файлы

▼ Вниз