ML
     
  Уважаемый Гость!
Вы можете поддержать проект и зарегистрироваться у наших партнеров - онлайн-стратегия MyLands. При регистрации в игре Вы получите код, который сможете активировать после регистрации на pirat.ca и получить 1000 дублонов.

Ваш код:
ea554e7ed3eacceeae87a8b30a9de3f086c18a84
 
     

Штамм / The Strain / Сезон: 2 / Серии: 1-13 (13) (Фил Абрахам / Phil Abraham, ...) [2015 г., ужасы, триллер, драма, WEB-DL, 1080p] MVO (LostFilm) + Original (Eng) + Sub (Rus, Eng)

Ответить на тему
 
Автор
Сообщение

Пост 21-Авг-2015 16:39

[Q] 

TERMOS

Легенда

-Штамм / The Strain
(2 сезон)
-- Производство: США
Жанр: ужасы, триллер, драма
Год выпуска: 2015 г.
Продолжительность: 1-ая серия ~ 00:58:00, 2-13 серии ~ 00:49:00
Перевод: Профессиональный (многоголосый, закадровый) [LostFilm]
Оригинальный аудиопоток: английский
Режиссер: Фил Абрахам / Phil Abraham, Питер Уэллер / Peter Weller, Дэвид Семел / David Semel, ...-В ролях: Кори Столл, Миа Маэстро, Дэвид Брэдли, Рихард Заммель, Шон Эстин, Джонатан Хайд, Кевин Дюран, Джек Кеси, Натали Браун, Бен Хайленд-Описание: Концептуальный хоррор от знаменитого мексиканского режиссёра Гильермо дель Торо в корне изменит отношение к вампирам, как к милым созданиям, способным любить и страдать. Вампиризм — это опасный заразный вирус, штамм которого содержит следы чудовищ древнего мира. Если глава Нью-Йоркского центра по контролю заболеваний и его коллеги не остановят распространение этого ужасного вируса, превращающего людей в невиданных доселе кровожадных монстров, человечество попадёт под угрозу вымирания.
    Первый визит главных героев к Хозяину состоялся. Главный враг был ранен и бежал с поля боя. Но теперь у него есть время, чтобы заживить раны и снова ринуться в бой. Тем более, что в его распоряжении уже многотысячная армия вампиров.
Эфрам Гудвэзер (Кори Столл) и Нора Мартинес (Миа Маэстро) используют свои профессиональные знания и пытаются решить, как прервать стремительную передачу инфекции. Если раньше герои хотели остановить распространение вируса, то теперь им придётся пойти другим путём — изобрести способ заразить вампиров, изучив их слабые места.
    Тем временем Эбрахам Сетракян (Дэвид Брэдли) ищет собственное оружие против вампиров — древний том неясного происхождения под названием Оксидо Люмен (Occido Lumen), который содержит информацию о том, как убить Хозяина.
    Из-за того, что Келли Гудвэзер (Натали Браун) связана с Эфрамом, Хозяин делает её избранной и возвращает ей частичку сознания. Её миссия очень проста, ей нужно найти сына и связаться с ним. Хозяин и господин Айхгорст (Рихард Заммель) снабдили её помощниками, которых назвали «осязателями». Это невероятно жуткие существа с обостренными чувствами, способные видеть за пределами воспринимаемого человеческим глазом спектра.
    Элдрич Палмер (Джонатан Хайд) подался в политику, чтобы предстать перед общественностью героем Нью-Йорка и исполнить свою роль, отведённую для него Хозяином.
    Охотникам за вампирами пришлось перебраться из ломбарда Сетракяна на чердак Фета (Кевин Дюран) в Бруклине, поэтому кругом теперь теснота и никакого личного пространства. Василию особенно тяжело привыкнуть к тому, что он не один.
    Во втором сезоне создатели «Штамма» обещают показать, как инфекция распространяется за пределами Нью-Йорка. Зрителю предстоит увидеть Вашингтон, который бросит все силы на защиту жителей. Ведь кроме эпицентра эпидемии, которым является Нью-Йорк, есть ещё и другие места, но, как и положено во время апокалипсиса, вампиризм станет угрозой не только Америке, но и всему миру.
- - -Качество видео: WEB-DL
Контейнер: MKV
Стандарт разрешения: 1080p
Видео кодек: H.264/AVC
Аудио кодек: AC3
Видео: 1920×1080 at 23.976 fps, ~4850 kbps avg
Аудио: Russian: 48 kHz, AC3, 3/2 (L,C,R,l,r) + LFE ch, ~384.00 kbps avg
Аудио #2: English: 48 kHz, AC3, 3/2 (L,C,R,l,r) + LFE ch, ~384.00 kbps avg
Cубтитры: Russian (forced), English
01: BK, NY / Бруклин, Нью-Йорк
02: By Any Means / Любой ценой
03: Fort Defiance / Непокорный рубеж
04: The Silver Angel / Серебряный ангел
05: Quick and Painless / Быстро и безболезненно
06: Identity / Облик
07: The Born / Рождённый
08: Intruders / Вторжение
09: The Battle for Red Hook / Битва за Рэд Хук
10: The Assassin / Убийца
11: Dead End / Тупик
12: Fallen Light / Павший свет
13: Night Train / Ночной поезд
Код:
General
Unique ID                   : 236155657073119323123466452758781161683 (0xB1A9ECD69695959A875C61199F92F0D3)
Complete name               : T:\Uploads\Pirat.Ca\The Strain - Season 02 (2015)[1080p.WEB-DL]\The.Strain.S02E01.1080p.WEB-DL.Rus.Eng.HDCLUB.mkv
Format                      : Matroska
Format version              : Version 4 / Version 2
File size                   : 2.32 GiB
Duration                    : 58mn 12s
Overall bit rate            : 5 704 Kbps
Movie name                  : The Strain | Season 2 (2015) | 01 - BK, NY (Release for HDCLUB)
Encoded date                : UTC 2015-08-21 11:56:24
Writing application         : mkvmerge v6.0.0 ('Coming Up For Air') built on Jan 20 2013 09:52:00
Writing library             : libebml v1.3.0 + libmatroska v1.4.0
Video
ID                          : 1
Format                      : AVC
Format/Info                 : Advanced Video Codec
Format profile              : [email protected]
Format settings, CABAC      : Yes
Format settings, ReFrames   : 4 frames
Codec ID                    : V_MPEG4/ISO/AVC
Duration                    : 58mn 12s
Bit rate                    : 4 822 Kbps
Width                       : 1 920 pixels
Height                      : 1 080 pixels
Display aspect ratio        : 16:9
Frame rate mode             : Constant
Frame rate                  : 23.976 fps
Color space                 : YUV
Chroma subsampling          : 4:2:0
Bit depth                   : 8 bits
Scan type                   : Progressive
Bits/(Pixel*Frame)          : 0.097
Stream size                 : 1.96 GiB (85%)
Title                       : The Strain | Season 2 (2015) | 01 - BK, NY (Бруклин, Нью-Йорк)
Language                    : English
Default                     : Yes
Forced                      : No
Color primaries             : BT.709
Transfer characteristics    : BT.709
Matrix coefficients         : BT.709
Color range                 : Limited
Audio #1
ID                          : 2
Format                      : AC-3
Format/Info                 : Audio Coding 3
Mode extension              : CM (complete main)
Format settings, Endianness : Big
Codec ID                    : A_AC3
Duration                    : 58mn 12s
Bit rate mode               : Constant
Bit rate                    : 384 Kbps
Channel(s)                  : 6 channels
Channel positions           : Front: L C R, Side: L R, LFE
Sampling rate               : 48.0 KHz
Bit depth                   : 16 bits
Compression mode            : Lossy
Stream size                 : 160 MiB (7%)
Title                       : DD 5.1 @ 384 kbps (LostFilm)
Language                    : Russian
Default                     : Yes
Forced                      : No
Audio #2
ID                          : 3
Format                      : AC-3
Format/Info                 : Audio Coding 3
Mode extension              : CM (complete main)
Format settings, Endianness : Big
Codec ID                    : A_AC3
Duration                    : 58mn 12s
Bit rate mode               : Constant
Bit rate                    : 384 Kbps
Channel(s)                  : 6 channels
Channel positions           : Front: L C R, Side: L R, LFE
Sampling rate               : 48.0 KHz
Bit depth                   : 16 bits
Compression mode            : Lossy
Stream size                 : 160 MiB (7%)
Title                       : DD 5.1 @ 384 kbps
Language                    : English
Default                     : No
Forced                      : No
Text #1
ID                          : 4
Format                      : UTF-8
Codec ID                    : S_TEXT/UTF8
Codec ID/Info               : UTF-8 Plain Text
Language                    : Russian
Default                     : Yes
Forced                      : Yes
Text #2
ID                          : 5
Format                      : UTF-8
Codec ID                    : S_TEXT/UTF8
Codec ID/Info               : UTF-8 Plain Text
Language                    : English
Default                     : No
Forced                      : No
Download / Скачать

Хотите скачать бесплатно? Зарегистрируйтесь на сайте (ссылка на регистрацию). Pirat.ca - самый быстрый торрент трекер в рунете!

Как скачивать  ·   Что такое торрент  ·   Рейтинг и ограничения



Последний раз редактировалось: TERMOS (2015-10-08 22:41), всего редактировалось 8 раз(а)

Пост 25-Авг-2015 10:29 (спустя 3 дня)

Топик был перенесен из форума Зарубежные сериалы (Трюм) в форум Сериалы в эфире
Андря
 

TERMOS ®

Легенда

12014

Пост 29-Авг-2015 23:04 (спустя 8 дней)

[Q] 

Добавлена 7-я серия. Обновите торрент-файл!

_________________
[Профиль]  [ЛС] 

TERMOS ®

Легенда

12014

Пост 04-Сен-2015 21:52 (спустя 5 дней)

[Q] 

Заменены 4-5 серии (LostFilm переозвучил их голосами, соответствующими остальным сериям сезона). Добавлена 8-я серия. Обновите торрент-файл!

_________________
[Профиль]  [ЛС] 

TERMOS ®

Легенда

12014

Пост 09-Сен-2015 23:05 (спустя 5 дней)

[Q] 

Добавлена 9-я серия. Обновите торрент-файл!

_________________
[Профиль]  [ЛС] 

TERMOS ®

Легенда

12014

Пост 25-Сен-2015 21:32 (спустя 15 дней)

[Q] 

Добавлены 10-11 серии. Обновите торрент-файл!

_________________
[Профиль]  [ЛС] 

TERMOS ®

Легенда

12014

Пост 01-Окт-2015 22:44 (спустя 6 дней)

[Q] 

Добавлена 12-я серия. Обновите торрент-файл!

_________________
[Профиль]  [ЛС] 

TERMOS ®

Легенда

12014

Пост 08-Окт-2015 22:42 (спустя 6 дней)

[Q] 

Добавлена 13-я серия. Финал сезона! Обновите торрент-файл!

_________________
[Профиль]  [ЛС] 
Показать сообщения:    
Ответить на тему

Текущее время: Сегодня 12:10

Часовой пояс: GMT + 4



Вы не можете начинать темы
Вы не можете отвечать на сообщения
Вы не можете редактировать свои сообщения
Вы не можете удалять свои сообщения
Вы не можете голосовать в опросах
Вы не можете прикреплять файлы к сообщениям
Вы не можете скачивать файлы

▼ Вниз