ML
     
  Уважаемый Гость!
Вы можете поддержать проект и зарегистрироваться у наших партнеров - онлайн-стратегия MyLands. При регистрации в игре Вы получите код, который сможете активировать после регистрации на pirat.ca и получить 1000 дублонов.

Ваш код:
ea554e7ed3eacceeae87a8b30a9de3f086c18a84
 
     

Бойтесь ходячих мертвецов / Fear the Walking Dead / Сезон: 1 / Серии: 1-6 (6) (Адам Дэвидсон / Adam Davidson, ...) [2015 г., ужасы, драма, WEB-DL, 1080p] MVO (LostFilm, AMC) + Original (Eng) + Sub (Eng)

Ответить на тему
 
Автор
Сообщение

Пост 26-Авг-2015 15:42

[Q] 

TERMOS

Легенда

-Бойтесь ходячих мертвецов / Fear the Walking Dead
«Fear begins here»
(1 сезон)
-- Производство: США
Жанр: ужасы, драма
Год выпуска: 2015 г.
Продолжительность: 1 серия ~01:00:00, 2-6 серии ~00:43:00
Перевод: Профессиональный (многоголосый, закадровый) [LostFilm]
Перевод 2: Профессиональный (многоголосый, закадровый) [AMC]
Оригинальный аудиопоток: английский
Режиссер: Адам Дэвидсон / Adam Davidson, Кари Скогланд / Kari Skogland, Стефан Шварц / Stefan Schwartz-В ролях: Клифф Кёртис, Ким Диккенс, Алисия Дебнем-Кери, Фрэнк Диллэйн, Рубен Бладес, Мерседес Масон, Колман Доминго, Лоренцо Джеймс Хенри, Элизабет Родригес, Тони Френч-Описание: Действия сериала происходят параллельно с событиями зомби-апокалипсиса, показанными в сериале «Ходячие мертвецы», но в совершенно другом месте - Лос-Анджелесе. Акцент будет сделан на семейные отношения, в частности, проблемы отцов и детей. История вращается вокруг Шона — разведённого школьного учителя и Нэнси руководительницы женского совета. А так же детей Нэнси: Ника, который борется с наркотической зависимостью и амбициозной дочери Эшли.
- -Качество видео: WEB-DL
Контейнер: MKV
Стандарт разрешения: 1080p
Видео кодек: H.264/AVC
Аудио кодек: AC3
Видео: 1920x1080 at 23.976 fps, ~5000 kbps avg
Аудио: Russian: 48 kHz, AC3, 3/2 (L,C,R,l,r) + LFE ch, ~384.00 kbps avg |Многоголосый закадровый, LostFilm|
Аудио #2: Russian: 48 kHz, AC3, 3/2 (L,C,R,l,r) + LFE ch, ~384.00 kbps avg |Многоголосый закадровый, AMC|
Аудио #3: English: 48 kHz, AC3, 3/2 (L,C,R,l,r) + LFE ch, ~384.00 kbps avg
Cубтитры: English
01. Пилот / Pilot
02. Так близко, и всё-таки далеко / So Close, Yet So Far
03. Собака / The Dog
04. Не угасай / Not Fade Away
05. Кобальт / Cobalt
06. Хороший человек / The Good Man
Код:
General
Unique ID                   : 244354864659421719707956529756578833659 (0xB7D508FBAFACA1DFBD357CE16F84E4FB)
Complete name               : X:\Uploads\Pirat.Ca\Fear The Walking Dead - Season 01 (2015)[1080p.WEB-DL]\Fear.the.Walking.Dead.S01E01.1080p.WEB-DL.Rus.Eng.HDCLUB.mkv
Format                      : Matroska
Format version              : Version 4 / Version 2
File size                   : 2.86 GiB
Duration                    : 1h 4mn
Overall bit rate            : 6 341 Kbps
Movie name                  : Fear the Walking Dead 1x01 (2015)
Encoded date                : UTC 2015-08-25 23:48:07
Writing application         : mkvmerge v8.0.0 ('Til The Day That I Die') 64bit
Writing library             : libebml v1.3.1 + libmatroska v1.4.2
DURATION                    : 01:03:32.807000000
NUMBER_OF_FRAMES            : 898
NUMBER_OF_BYTES             : 27137
_STATISTICS_WRITING_APP     : mkvmerge v8.0.0 ('Til The Day That I Die') 64bit
_STATISTICS_WRITING_DATE_UT : 2015-08-25 23:48:07
_STATISTICS_TAGS            : BPS DURATION NUMBER_OF_FRAMES NUMBER_OF_BYTES
Video
ID                          : 1
Format                      : AVC
Format/Info                 : Advanced Video Codec
Format profile              : [email protected]
Format settings, CABAC      : Yes
Format settings, ReFrames   : 4 frames
Codec ID                    : V_MPEG4/ISO/AVC
Duration                    : 1h 4mn
Bit rate                    : 5 063 Kbps
Width                       : 1 920 pixels
Height                      : 1 080 pixels
Display aspect ratio        : 16:9
Frame rate mode             : Constant
Frame rate                  : 23.976 fps
Color space                 : YUV
Chroma subsampling          : 4:2:0
Bit depth                   : 8 bits
Scan type                   : Progressive
Bits/(Pixel*Frame)          : 0.102
Stream size                 : 2.28 GiB (80%)
Title                       : sdsds
Language                    : English
Default                     : Yes
Forced                      : No
Color primaries             : BT.709
Transfer characteristics    : BT.709
Matrix coefficients         : BT.709
Color range                 : Limited
Audio #1
ID                          : 2
Format                      : AC-3
Format/Info                 : Audio Coding 3
Mode extension              : CM (complete main)
Format settings, Endianness : Big
Codec ID                    : A_AC3
Duration                    : 1h 4mn
Bit rate mode               : Constant
Bit rate                    : 384 Kbps
Channel(s)                  : 6 channels
Channel positions           : Front: L C R, Side: L R, LFE
Sampling rate               : 48.0 KHz
Bit depth                   : 16 bits
Compression mode            : Lossy
Stream size                 : 177 MiB (6%)
Title                       : LostFilm
Language                    : Russian
Default                     : Yes
Forced                      : No
Audio #2
ID                          : 3
Format                      : AC-3
Format/Info                 : Audio Coding 3
Mode extension              : CM (complete main)
Format settings, Endianness : Big
Codec ID                    : A_AC3
Duration                    : 1h 4mn
Bit rate mode               : Constant
Bit rate                    : 384 Kbps
Channel(s)                  : 6 channels
Channel positions           : Front: L C R, Side: L R, LFE
Sampling rate               : 48.0 KHz
Bit depth                   : 16 bits
Compression mode            : Lossy
Stream size                 : 177 MiB (6%)
Title                       : AMC
Language                    : Russian
Default                     : No
Forced                      : No
Audio #3
ID                          : 4
Format                      : AC-3
Format/Info                 : Audio Coding 3
Mode extension              : CM (complete main)
Format settings, Endianness : Big
Codec ID                    : A_AC3
Duration                    : 1h 4mn
Bit rate mode               : Constant
Bit rate                    : 384 Kbps
Channel(s)                  : 6 channels
Channel positions           : Front: L C R, Side: L R, LFE
Sampling rate               : 48.0 KHz
Bit depth                   : 16 bits
Compression mode            : Lossy
Stream size                 : 177 MiB (6%)
Language                    : English
Default                     : No
Forced                      : No
Text
ID                          : 5
Format                      : UTF-8
Codec ID                    : S_TEXT/UTF8
Codec ID/Info               : UTF-8 Plain Text
Language                    : English
Default                     : No
Forced                      : No
Download / Скачать

Хотите скачать бесплатно? Зарегистрируйтесь на сайте (ссылка на регистрацию). Pirat.ca - самый быстрый торрент трекер в рунете!

Как скачивать  ·   Что такое торрент  ·   Рейтинг и ограничения



Последний раз редактировалось: TERMOS (2015-10-08 10:41), всего редактировалось 5 раз(а)

dj421520

Пост 27-Авг-2015 18:04 (спустя 1 день 2 часа)

[Q] 

ну по первой серии хер знает что сказать ждём других серий, а так сойдёт
[Профиль]  [ЛС] 

TERMOS ®

Легенда

12014

Пост 03-Сен-2015 17:59 (спустя 6 дней)

[Q] 

Добавлена 2-я серия. Обновите торрент-файл!

_________________
[Профиль]  [ЛС] 

Meverik

Шкипер

Пост 04-Сен-2015 13:11 (спустя 19 часов)

[Q] 

Я так понимаю студия еще бабла решила срубить по этому миру?
[Профиль]  [ЛС] 

TERMOS ®

Легенда

12014

Пост 22-Сен-2015 16:30 (спустя 18 дней)

[Q] 

Добавлена 3-я серия. Обновите торрент-файл!

_________________
[Профиль]  [ЛС] 

TERMOS ®

Легенда

12014

Пост 23-Сен-2015 14:19 (спустя 21 час)

[Q] 

Добавлена 4-я серия. Обновите торрент-файл!

_________________
[Профиль]  [ЛС] 

TERMOS ®

Легенда

12014

Пост 30-Сен-2015 01:52 (спустя 6 дней)

[Q] 

Добавлена 5-я серия. Обновите торрент-файл!

_________________
[Профиль]  [ЛС] 

TERMOS ®

Легенда

12014

Пост 08-Окт-2015 10:42 (спустя 8 дней)

[Q] 

Добавлена 6-я серия. Финал сезона! Обновите торрент-файл!

_________________
[Профиль]  [ЛС] 

Dosermen

Юнга

Пост 08-Окт-2015 15:25 (спустя 4 часа)

[Q] 

спасибо за качество bp
[Профиль]  [ЛС] 

L.Rain

Шкипер

266

Пост 10-Фев-2016 18:40 (спустя 4 месяца 2 дня)

[Q] 

Как по мне, сериал вышел так себе.
[Профиль]  [ЛС] 
Показать сообщения:    
Ответить на тему

Текущее время: Сегодня 12:10

Часовой пояс: GMT + 4



Вы не можете начинать темы
Вы не можете отвечать на сообщения
Вы не можете редактировать свои сообщения
Вы не можете удалять свои сообщения
Вы не можете голосовать в опросах
Вы не можете прикреплять файлы к сообщениям
Вы не можете скачивать файлы

▼ Вниз