ML
     
  Уважаемый Гость!
Вы можете поддержать проект и зарегистрироваться у наших партнеров - онлайн-стратегия MyLands. При регистрации в игре Вы получите код, который сможете активировать после регистрации на pirat.ca и получить 1000 дублонов.

Ваш код:
47bfc18b89c74e4ae0d974e9b6943639e2bff08e
 
     

Черное Зеркало / Black Mirror / Сезон: 1 / Серии: 1-3 (3) (Карл Тиббеттс / Carl Tibbetts, ...) [2011 г., фантастика, триллер, драма, WEB-DL, 1080p] DVO (Кубик в Кубе) + MVO (Пифагор, BaibaKo, Україна) + Original (Eng)

Ответить на тему
 
Автор
Сообщение

Пост 07-Сен-2015 12:52

[Q] 

TERMOS

Легенда

-Черное Зеркало / Black Mirror
(1 сезон)
-- Производство: Великобритания
Жанр: фантастика, триллер, драма
Год выпуска: 2011 г.
Продолжительность: 3х ~00:43:00
Перевод: Профессиональный (двухголосый, закадровый) [Кубик в Кубе]
Перевод 2: Профессиональный (многоголосый, закадровый) [Пифагор]
Перевод 3: Профессиональный (многоголосый, закадровый) [BaibaKo]
Перевод 4: Профессиональный (многоголосый, закадровый) [Україна]
Оригинальный аудиопоток: английский
Режиссер: Карл Тиббеттс / Carl Tibbetts, Отто Баферст / Otto Bathurst, Эрос Лин / Euros Lyn, ...-В ролях: Рори Киннер, Дэниэл Калуя, Джессика Браун-Финдли, Тоби Кеббелл, Джоди Уиттакер, Хейли Этвелл, Донал Глисон, Ленора Кричлоу, Дэниэл Ригби, Том Каллен-Описание: За последние десять лет технологии всесторонне изменили нашу жизнь, прежде чем мы успели опомниться и усомниться в них. В каждом доме, на каждом столе, на каждой ладони - плазменный телевизор, монитор компьютера, дисплей смартфона - черное зеркало нашего существования в двадцать первом веке. Наша связь с реальностью меняется. Мы возложили на алтарь «Google» и «Apple» и поклоняемся им. «Facebook»-алгоритмы знают о нас больше, чем наши собственные родители. У нас есть доступ ко всей информации в мире, но в голове хватает места лишь для того, чтобы воспринять 140 символов из сообщения в твиттере. В «Чёрном зеркале» отображается всеобщее беспокойство за наш современный мир...
- -Качество видео: WEB-DL
Источник: Amazon Prime Instant Video
Контейнер: MKV
Стандарт разрешения: 1080p
Видео кодек: H.264/AVC
Аудио кодек: AC3
Видео: 1920x1080 at 25.000 fps, ~10000 kbps avg
Аудио: Russian: 48 kHz, AC3, 2/0 (L,R) ch, ~192 kbps avg |Двухголосый закадровый, Кубик в Кубе|
Аудио #2: Russian: 48 kHz, AC3, 2/0 (L,R) ch, ~192 kbps avg |Многоголосый закадровый, Пифагор|
Аудио #3: Russian: 48 kHz, AC3, 2/0 (L,R) ch, ~192 kbps avg |Многоголосый закадровый, BaibaKo|
Аудио #4: Ukrainian: 48 kHz, AC3, 2/0 (L,R) ch, ~192 kbps avg |Многоголосый закадровый, Україна|
Аудио #5: English: 48 kHz, AAC, 2/0 (L,R) ch, ~128 kbps avg
Cубтитры: отсутствуют

01. Национальный гимн / The National Anthem
02. 15 миллионов призов / Fifteen Million Merits
03. Все о тебе / The Entire History of You
Код:
General
Unique ID                   : 181330088053433031826369093281459010552 (0x886AE7967D7D2E5294749745B160FBF8)
Complete name               : Y:\Uploads\Pirat.Ca\Black Mirror - Season 01 (2011)[1080p.WEB-DL]\Black.Mirror.S01E01.1080p.WEB-DL.3xRus.Ukr.Eng.mkv
Format                      : Matroska
Format version              : Version 4 / Version 2
File size                   : 3.27 GiB
Duration                    : 44mn 4s
Overall bit rate            : 10.6 Mbps
Encoded date                : UTC 2015-08-21 10:28:31
Writing application         : mkvmerge v8.0.0 ('Til The Day That I Die') 64bit
Writing library             : libebml v1.3.1 + libmatroska v1.4.2
DURATION                    : 00:44:04.032000000
NUMBER_OF_FRAMES            : 123939
NUMBER_OF_BYTES             : 41457814
_STATISTICS_WRITING_APP     : mkvmerge v8.0.0 ('Til The Day That I Die') 64bit
_STATISTICS_WRITING_DATE_UT : 2015-08-21 10:28:31
_STATISTICS_TAGS            : BPS DURATION NUMBER_OF_FRAMES NUMBER_OF_BYTES
Video
ID                          : 1
Format                      : AVC
Format/Info                 : Advanced Video Codec
Format profile              : [email protected]
Format settings, CABAC      : Yes
Format settings, ReFrames   : 4 frames
Format settings, GOP        : M=4, N=50
Codec ID                    : V_MPEG4/ISO/AVC
Duration                    : 44mn 4s
Bit rate mode               : Constant
Nominal bit rate            : 10 000 Kbps
Width                       : 1 920 pixels
Height                      : 1 080 pixels
Display aspect ratio        : 16:9
Frame rate mode             : Constant
Frame rate                  : 25.000 fps
Standard                    : PAL
Color space                 : YUV
Chroma subsampling          : 4:2:0
Bit depth                   : 8 bits
Scan type                   : Progressive
Bits/(Pixel*Frame)          : 0.193
Language                    : English
Default                     : Yes
Forced                      : No
Color primaries             : BT.709
Transfer characteristics    : BT.709
Matrix coefficients         : BT.709
Color range                 : Limited
Audio #1
ID                          : 2
Format                      : AC-3
Format/Info                 : Audio Coding 3
Mode extension              : CM (complete main)
Format settings, Endianness : Big
Codec ID                    : A_AC3
Duration                    : 44mn 4s
Bit rate mode               : Constant
Bit rate                    : 192 Kbps
Channel(s)                  : 2 channels
Channel positions           : Front: L R
Sampling rate               : 48.0 KHz
Bit depth                   : 16 bits
Compression mode            : Lossy
Stream size                 : 60.5 MiB (2%)
Title                       : Кубик в кубе
Language                    : Russian
Default                     : Yes
Forced                      : No
Audio #2
ID                          : 3
Format                      : AC-3
Format/Info                 : Audio Coding 3
Mode extension              : CM (complete main)
Format settings, Endianness : Big
Codec ID                    : A_AC3
Duration                    : 44mn 4s
Bit rate mode               : Constant
Bit rate                    : 192 Kbps
Channel(s)                  : 2 channels
Channel positions           : Front: L R
Sampling rate               : 48.0 KHz
Bit depth                   : 16 bits
Compression mode            : Lossy
Stream size                 : 60.5 MiB (2%)
Title                       : Пифагор
Language                    : Russian
Default                     : No
Forced                      : No
Audio #3
ID                          : 4
Format                      : AC-3
Format/Info                 : Audio Coding 3
Mode extension              : CM (complete main)
Format settings, Endianness : Big
Codec ID                    : A_AC3
Duration                    : 44mn 4s
Bit rate mode               : Constant
Bit rate                    : 192 Kbps
Channel(s)                  : 2 channels
Channel positions           : Front: L R
Sampling rate               : 48.0 KHz
Bit depth                   : 16 bits
Compression mode            : Lossy
Stream size                 : 60.5 MiB (2%)
Title                       : BaibaKo
Language                    : Russian
Default                     : No
Forced                      : No
Audio #4
ID                          : 5
Format                      : AC-3
Format/Info                 : Audio Coding 3
Mode extension              : CM (complete main)
Format settings, Endianness : Big
Codec ID                    : A_AC3
Duration                    : 44mn 4s
Bit rate mode               : Constant
Bit rate                    : 192 Kbps
Channel(s)                  : 2 channels
Channel positions           : Front: L R
Sampling rate               : 48.0 KHz
Bit depth                   : 16 bits
Compression mode            : Lossy
Stream size                 : 60.5 MiB (2%)
Title                       : Україна
Language                    : Ukrainian
Default                     : No
Forced                      : No
Audio #5
ID                          : 6
Format                      : AAC
Format/Info                 : Advanced Audio Codec
Format profile              : LC
Codec ID                    : A_AAC
Duration                    : 44mn 4s
Channel(s)                  : 2 channels
Channel positions           : Front: L R
Sampling rate               : 48.0 KHz
Compression mode            : Lossy
Language                    : English
Default                     : No
Forced                      : No
Download / Скачать

Хотите скачать бесплатно? Зарегистрируйтесь на сайте (ссылка на регистрацию). Pirat.ca - самый быстрый торрент трекер в рунете!

Как скачивать  ·   Что такое торрент  ·   Рейтинг и ограничения

Пост 07-Сен-2015 20:46 (спустя 7 часов)

Топик был перенесен из форума Зарубежные сериалы (Трюм) в форум Зарубежные сериалы
kugesan
 

Golden

Морской Волк

Пост 17-Сен-2015 22:48 (спустя 10 дней)

[Q] 

Фильм в общем понравился.
Есть моменты, не указанные в описании:
Перевод по-умолчанию "Кубик в кубе" - полно ненормативной лексики.
В фильме есть эротические сцены 16+.
С детьми смотреть будет не комфортно.
[Профиль]  [ЛС] 

ramzzess1

Шкипер

Пост 02-Окт-2015 22:52 (спустя 15 дней)

[Q] 

!COOL!
[Профиль]  [ЛС] 

ZenonZenonZenon

Штурман

Пост 05-Апр-2016 21:28 (спустя 6 месяцев 2 дня)

[Q] 

Встаньте на раздачу!
[Профиль]  [ЛС] 

Pippo48

Корсар

Пост 03-Ноя-2016 20:48 (спустя 6 месяцев 27 дней)

[Q] 

Классный сериал, жалко сезоны короткие
[Профиль]  [ЛС] 
Показать сообщения:    
Ответить на тему

Текущее время: Сегодня 07:06

Часовой пояс: GMT + 4



Вы не можете начинать темы
Вы не можете отвечать на сообщения
Вы не можете редактировать свои сообщения
Вы не можете удалять свои сообщения
Вы не можете голосовать в опросах
Вы не можете прикреплять файлы к сообщениям
Вы не можете скачивать файлы

▼ Вниз