ML
     
  Уважаемый Гость!
Вы можете поддержать проект и зарегистрироваться у наших партнеров - онлайн-стратегия MyLands. При регистрации в игре Вы получите код, который сможете активировать после регистрации на pirat.ca и получить 1000 дублонов.

Ваш код:
ca44e9295b9b8527ba1c339c20494f70782efea6
 
     

Черное Зеркало / Black Mirror / Сезон: 2 / Серии: 1-3 (3) (Карл Тиббеттс / Carl Tibbetts, ...) [2013 г., фантастика, триллер, драма, WEB-DL, 1080p] DVO (Кубик в Кубе) + MVO (Пифагор, BaibaKo, Україна) + Original (Eng)

Ответить на тему
 
Автор
Сообщение

Пост 07-Сен-2015 13:15

[Q] 

TERMOS

Легенда

-Черное Зеркало / Black Mirror
(2 сезон)
-- Производство: Великобритания
Жанр: фантастика, триллер, драма
Год выпуска: 2013 г.
Продолжительность: 3х ~00:43:00
Перевод: Профессиональный (двухголосый, закадровый) [Кубик в Кубе]
Перевод 2: Профессиональный (многоголосый, закадровый) [Пифагор]
Перевод 3: Профессиональный (многоголосый, закадровый) [BaibaKo]
Перевод 4: Профессиональный (многоголосый, закадровый) [Україна]
Оригинальный аудиопоток: английский
Режиссер: Карл Тиббеттс / Carl Tibbetts, Отто Баферст / Otto Bathurst, Эрос Лин / Euros Lyn, ...-В ролях: Рори Киннер, Дэниэл Калуя, Джессика Браун-Финдли, Тоби Кеббелл, Джоди Уиттакер, Хейли Этвелл, Донал Глисон, Ленора Кричлоу, Дэниэл Ригби, Том Каллен-Описание: а последние десять лет технологии всесторонне изменили нашу жизнь, прежде чем мы успели опомниться и усомниться в них. В каждом доме, на каждом столе, на каждой ладони - плазменный телевизор, монитор компьютера, дисплей смартфона - черное зеркало нашего существования в двадцать первом веке. Наша связь с реальностью меняется. Мы возложили на алтарь «Google» и «Apple» и поклоняемся им. «Facebook»-алгоритмы знают о нас больше, чем наши собственные родители. У нас есть доступ ко всей информации в мире, но в голове хватает места лишь для того, чтобы воспринять 140 символов из сообщения в твиттере. В «Чёрном зеркале» отображается всеобщее беспокойство за наш современный мир...
- -Качество видео: WEB-DL
Источник: Amazon Prime Instant Video
Контейнер: MKV
Стандарт разрешения: 1080p
Видео кодек: H.264/AVC
Аудио кодек: AC3
Видео: 1920x1080 at 25.000 fps, ~10000 kbps avg
Аудио: Russian: 48 kHz, AC3, 2/0 (L,R) ch, ~192 kbps avg |Двухголосый закадровый, Кубик в Кубе|
Аудио #2: Russian: 48 kHz, AC3, 2/0 (L,R) ch, ~192 kbps avg |Многоголосый закадровый, Пифагор|
Аудио #3: Russian: 48 kHz, AC3, 2/0 (L,R) ch, ~192 kbps avg |Многоголосый закадровый, BaibaKo|
Аудио #4: Ukrainian: 48 kHz, AC3, 2/0 (L,R) ch, ~192 kbps avg |Многоголосый закадровый, Україна|
Аудио #5: English: 48 kHz, AAC, 2/0 (L,R) ch, ~128 kbps avg
Cубтитры: отсутствуют

01. Скоро вернусь / Be Right Back
02. Белый медведь / White Bear
03. Момент для Уолдо / The Waldo Moment
Код:
General
Unique ID                   : 213928940692990702738715371457034194991 (0xA0F1371CEDC060D5B44CD1589202102F)
Complete name               : Y:\Uploads\Pirat.Ca\Black Mirror - Season 02 (2013)[1080p.WEB-DL]\Black.Mirror.S02E01.1080p.WEB-DL.3xRus.Ukr.Eng.mkv
Format                      : Matroska
Format version              : Version 4 / Version 2
File size                   : 3.60 GiB
Duration                    : 48mn 29s
Overall bit rate            : 10.6 Mbps
Encoded date                : UTC 2015-09-04 20:53:58
Writing application         : mkvmerge v8.0.0 ('Til The Day That I Die') 64bit
Writing library             : libebml v1.3.1 + libmatroska v1.4.2
DURATION                    : 00:48:29.056000000
NUMBER_OF_FRAMES            : 90908
NUMBER_OF_BYTES             : 69817344
_STATISTICS_WRITING_APP     : mkvmerge v8.0.0 ('Til The Day That I Die') 64bit
_STATISTICS_WRITING_DATE_UT : 2015-09-04 20:53:58
_STATISTICS_TAGS            : BPS DURATION NUMBER_OF_FRAMES NUMBER_OF_BYTES
Video
ID                          : 1
Format                      : AVC
Format/Info                 : Advanced Video Codec
Format profile              : [email protected]
Format settings, CABAC      : Yes
Format settings, ReFrames   : 4 frames
Format settings, GOP        : M=4, N=50
Codec ID                    : V_MPEG4/ISO/AVC
Duration                    : 48mn 29s
Bit rate mode               : Constant
Nominal bit rate            : 10 000 Kbps
Width                       : 1 920 pixels
Height                      : 1 080 pixels
Display aspect ratio        : 16:9
Frame rate mode             : Constant
Frame rate                  : 25.000 fps
Standard                    : PAL
Color space                 : YUV
Chroma subsampling          : 4:2:0
Bit depth                   : 8 bits
Scan type                   : Progressive
Bits/(Pixel*Frame)          : 0.193
Language                    : English
Default                     : Yes
Forced                      : No
Color primaries             : BT.709
Transfer characteristics    : BT.709
Matrix coefficients         : BT.709
Color range                 : Limited
Audio #1
ID                          : 2
Format                      : AC-3
Format/Info                 : Audio Coding 3
Mode extension              : CM (complete main)
Format settings, Endianness : Big
Codec ID                    : A_AC3
Duration                    : 48mn 29s
Bit rate mode               : Constant
Bit rate                    : 192 Kbps
Channel(s)                  : 2 channels
Channel positions           : Front: L R
Sampling rate               : 48.0 KHz
Bit depth                   : 16 bits
Compression mode            : Lossy
Stream size                 : 66.6 MiB (2%)
Title                       : Кубик в кубе
Language                    : Russian
Default                     : Yes
Forced                      : No
Audio #2
ID                          : 3
Format                      : AC-3
Format/Info                 : Audio Coding 3
Mode extension              : CM (complete main)
Format settings, Endianness : Big
Codec ID                    : A_AC3
Duration                    : 48mn 29s
Bit rate mode               : Constant
Bit rate                    : 192 Kbps
Channel(s)                  : 2 channels
Channel positions           : Front: L R
Sampling rate               : 48.0 KHz
Bit depth                   : 16 bits
Compression mode            : Lossy
Stream size                 : 66.6 MiB (2%)
Title                       : Пифагор
Language                    : Russian
Default                     : No
Forced                      : No
Audio #3
ID                          : 4
Format                      : AC-3
Format/Info                 : Audio Coding 3
Mode extension              : CM (complete main)
Format settings, Endianness : Big
Codec ID                    : A_AC3
Duration                    : 48mn 29s
Bit rate mode               : Constant
Bit rate                    : 192 Kbps
Channel(s)                  : 2 channels
Channel positions           : Front: L R
Sampling rate               : 48.0 KHz
Bit depth                   : 16 bits
Compression mode            : Lossy
Stream size                 : 66.6 MiB (2%)
Title                       : BaibaKo
Language                    : Russian
Default                     : No
Forced                      : No
Audio #4
ID                          : 5
Format                      : AC-3
Format/Info                 : Audio Coding 3
Mode extension              : CM (complete main)
Format settings, Endianness : Big
Codec ID                    : A_AC3
Duration                    : 48mn 29s
Bit rate mode               : Constant
Bit rate                    : 192 Kbps
Channel(s)                  : 2 channels
Channel positions           : Front: L R
Sampling rate               : 48.0 KHz
Bit depth                   : 16 bits
Compression mode            : Lossy
Stream size                 : 66.6 MiB (2%)
Title                       : Україна
Language                    : Ukrainian
Default                     : No
Forced                      : No
Audio #5
ID                          : 6
Format                      : AAC
Format/Info                 : Advanced Audio Codec
Format profile              : LC
Codec ID                    : A_AAC
Duration                    : 48mn 29s
Channel(s)                  : 2 channels
Channel positions           : Front: L R
Sampling rate               : 48.0 KHz
Compression mode            : Lossy
Language                    : English
Default                     : No
Forced                      : No
Download / Скачать

Хотите скачать бесплатно? Зарегистрируйтесь на сайте (ссылка на регистрацию). Pirat.ca - самый быстрый торрент трекер в рунете!

Как скачивать  ·   Что такое торрент  ·   Рейтинг и ограничения

ramzzess1

Шкипер

Пост 02-Окт-2015 22:54 (спустя 25 дней)

[Q] 

Спасибо!!!
[Профиль]  [ЛС] 

buka2150

Штурман

Пост 18-Окт-2015 15:38 (спустя 15 дней)

[Q] 

всем смотреть обязательно!
[Профиль]  [ЛС] 
Показать сообщения:    
Ответить на тему

Текущее время: Сегодня 16:13

Часовой пояс: GMT + 4



Вы не можете начинать темы
Вы не можете отвечать на сообщения
Вы не можете редактировать свои сообщения
Вы не можете удалять свои сообщения
Вы не можете голосовать в опросах
Вы не можете прикреплять файлы к сообщениям
Вы не можете скачивать файлы

▼ Вниз