ML
     
  Уважаемый Гость!
Вы можете поддержать проект и зарегистрироваться у наших партнеров - онлайн-стратегия MyLands. При регистрации в игре Вы получите код, который сможете активировать после регистрации на pirat.ca и получить 1000 дублонов.

Ваш код:
9cfe162481db953a6549f32179d7b3900b8b8643
 
     

Джонатан Стрендж и мистер Норрелл / Jonathan Strange And Mr Norrell / Сезон: 1 / Серии: 7 из 7 (Тоби Хэйнс / Toby Haynes) [2015 г., фэнтези, мистика, сказка, HDTVRip, 1080p] MVO (BaibaKo) + Original (Eng)

Ответить на тему
 
Автор
Сообщение

Пост 07-Окт-2015 23:41

[Q] 

Сумрак

-Джонатан Стрендж и мистер Норрелл (2015) / (Jonathan Strange & Mr Norrell)-- Производство: BBC America, British Broadcasting Corporation (BBC)
Жанр: фэнтези, мистика, сказка
Год выпуска: 2015 г.
Продолжительность: 00:59:00
Перевод: Профессиональный (многоголосый, закадровый)
Оригинальный аудиопоток: английский
Режиссер: Тоби Хэйнс / Toby Haynes-В ролях: Марк Уоррен, Эрион Бакаре, Берти Карвел, Энцо Чиленти, Элис Энглерт, Винсент Франклин, Джон Хеффернан, Эдвард Хогг, Пол Кей, Эдди Марсан-Описание: История начинается в альтернативной Англии XIX века в период Наполеоновских войн. Английская магия, когда-то утраченная возвращается благодаря консервативному Гильберту Норреллу и дерзкому новичку Джонатану Стренджу. Мистер Норрелл воскрешает невесту высокопоставленного правительственного чиновника, заключив для этого сделку с потусторонними силами, тем самым запустив череду непредсказуемых и трагических событий.-Качество видео: HDTVRip
Контейнер: MKV
Стандарт разрешения: 1080p
Видео кодек: Другой MPEG4
Аудио кодек: AC3
Видео: MPEG-4 AVC, ~ 4096 Кбит/с, 1280x720
Аудио Rus: AC3, 2 ch, 384 Кбит/с
Аудио Eng: AC3, 2 ch, 192 Кбит/с
Перевод: Профессиональный многоголосый - BaibaKo
бщее
Уникальный идентификатор : 246667466528714687916423814735471962005 (0xB9926D0EF35DAAA69E44EF4D1191E795)
Полное имя : C:\Users\OKSI\Downloads\Jonathan_[pirat.ca]\Jonathan.Strange.And.Mr.Norrell.s01e01.HDTV720p.Rus.Eng.BaibaKo.tv.mkv
Формат : Matroska
Версия формата : Version 4 / Version 2
Размер файла : 1,93 Гбайт
Продолжительность : 58 м.
Общий поток : 4674 Кбит/сек
Дата кодирования : UTC 2015-05-18 18:40:55
Программа кодирования : mkvmerge v7.9.0 ('Birds') 64bit
Библиотека кодирования : libebml v1.3.1 + libmatroska v1.4.2
DURATION : 00:58:59.840000000
NUMBER_OF_FRAMES : 110620
NUMBER_OF_BYTES : 169912320
_STATISTICS_WRITING_APP : mkvmerge v7.9.0 ('Birds') 64bit
_STATISTICS_WRITING_DATE_UTC : 2015-05-18 18:40:55
_STATISTICS_TAGS : BPS DURATION NUMBER_OF_FRAMES NUMBER_OF_BYTES
Видео
Идентификатор : 1
Формат : AVC
Формат/Информация : Advanced Video Codec
Профиль формата : [email protected]
Параметр CABAC формата : Да
Параметр ReFrames формата : 5 кадров
Идентификатор кодека : V_MPEG4/ISO/AVC
Продолжительность : 58 м.
Битрейт : 4096 Кбит/сек
Ширина : 1280 пикселей
Высота : 720 пикселей
Соотношение сторон : 16:9
Режим частоты кадров : Постоянный
Частота кадров : 25,000 кадров/сек
Цветовое пространство : YUV
Субдискретизация насыщенности : 4:2:0
Битовая глубина : 8 бит
Тип развёртки : Прогрессивная
Бит/(Пиксели*Кадры) : 0.178
Размер потока : 1,65 Гбайт (86%)
Библиотека кодирования : x264 core 142 r2479 dd79a61
Настройки программы : cabac=1 / ref=5 / deblock=1:0:0 / analyse=0x3:0x113 / me=umh / subme=8 / psy=1 / psy_rd=1.00:0.00 / mixed_ref=1 / me_range=16 / chroma_me=1 / trellis=1 / 8x8dct=1 / cqm=0 / deadzone=21,11 / fast_pskip=1 / chroma_qp_offset=-2 / threads=12 / lookahead_threads=2 / sliced_threads=0 / nr=0 / decimate=1 / interlaced=0 / bluray_compat=0 / constrained_intra=0 / bframes=3 / b_pyramid=2 / b_adapt=2 / b_bias=0 / direct=3 / weightb=1 / open_gop=0 / weightp=2 / keyint=250 / keyint_min=25 / scenecut=40 / intra_refresh=0 / rc_lookahead=50 / rc=2pass / mbtree=1 / bitrate=4096 / ratetol=1.0 / qcomp=0.60 / qpmin=0 / qpmax=69 / qpstep=4 / cplxblur=20.0 / qblur=0.5 / vbv_maxrate=17500 / vbv_bufsize=17500 / nal_hrd=none / filler=0 / ip_ratio=1.40 / aq=1:1.00
Default : Да
Forced : Нет
Цветовой диапазон : Limited
Основные цвета : BT.709
Характеристики трансфера : BT.709
Коэффициенты матрицы : BT.709
DURATION : 00:58:59.840000000
NUMBER_OF_FRAMES : 88496
NUMBER_OF_BYTES : 1812483393
_STATISTICS_WRITING_APP : mkvmerge v7.9.0 ('Birds') 64bit
_STATISTICS_WRITING_DATE_UTC : 2015-05-18 18:40:55
_STATISTICS_TAGS : BPS DURATION NUMBER_OF_FRAMES NUMBER_OF_BYTES
Аудио #1
Идентификатор : 2
Формат : AC-3
Формат/Информация : Audio Coding 3
Расширение режима : CM (complete main)
Параметр Endianness формата : Big
Идентификатор кодека : A_AC3
Продолжительность : 58 м.
Вид битрейта : Постоянный
Битрейт : 384 Кбит/сек
Каналы : 2 канала
Расположение каналов : Front: L R
Частота : 48,0 КГц
Метод сжатия : С потерями
Задержка видео : -80 мс.
Размер потока : 162 Мбайт (8%)
Язык : Russian
Default : Да
Forced : Нет
DURATION : 00:58:59.840000000
NUMBER_OF_FRAMES : 110620
NUMBER_OF_BYTES : 84956160
_STATISTICS_WRITING_APP : mkvmerge v7.9.0 ('Birds') 64bit
_STATISTICS_WRITING_DATE_UTC : 2015-05-18 18:40:55
_STATISTICS_TAGS : BPS DURATION NUMBER_OF_FRAMES NUMBER_OF_BYTES
Аудио #2
Идентификатор : 3
Формат : AC-3
Формат/Информация : Audio Coding 3
Расширение режима : CM (complete main)
Параметр Endianness формата : Big
Идентификатор кодека : A_AC3
Продолжительность : 58 м.
Вид битрейта : Постоянный
Битрейт : 192 Кбит/сек
Каналы : 2 канала
Расположение каналов : Front: L R
Частота : 48,0 КГц
Метод сжатия : С потерями
Размер потока : 81,0 Мбайт (4%)
Заголовок : Stereo
Язык : English
Default : Нет
Forced : Нет
Download / Скачать

Хотите скачать бесплатно? Зарегистрируйтесь на сайте (ссылка на регистрацию). Pirat.ca - самый быстрый торрент трекер в рунете!

Как скачивать  ·   Что такое торрент  ·   Рейтинг и ограничения



Последний раз редактировалось: Сумрак (2015-10-09 18:42), всего редактировалось 2 раз(а)

Сумрак ®

1660

Пост 07-Окт-2015 23:45 (спустя 3 минуты)

[Q] 

мой личный отзыв 4+ по оценке твердая, но на любителя, то есть жанра фэнтази - спецэффеты где они есть довольно хорошие и реалистичные, но не ждите их массу . одним словом сериал довольно своеобразный и думаю стоит хотя бы раз посмотреть

_________________
[Профиль]  [ЛС] 

igorexa1111

Корсар

Пост 08-Окт-2015 07:27 (спустя 7 часов)

[Q] 

зазырим! Спасибо!!!
[Профиль]  [ЛС] 

Сумрак ®

1660

Пост 08-Окт-2015 08:12 (спустя 44 минуты)

[Q] 

до часов 5 вечера по Москве - комп отключу! - извиняйте по работе надо :)

_________________
[Профиль]  [ЛС] 

Сумрак ®

1660

Пост 09-Окт-2015 18:43 (спустя 1 день 10 часов)

[Q] 

Все добавил по торренту - сорри был занят

_________________
[Профиль]  [ЛС] 

Сумрак ®

1660

Пост 12-Окт-2015 14:25 (спустя 2 дня 19 часов)

[Q] 

ну отпишитесь кому как ? - мне так понравилось есть не плохая задумка - скажем классика фэнтази в английском духе ))) но чего то не хватает

_________________
[Профиль]  [ЛС] 

SHERHAN

683

Пост 12-Окт-2015 16:47 (спустя 2 часа 22 минуты)

[Q] 


_________________
Рыжий хищник, полосатый,
В меру наглый и усатый,
Днём и ночью он не спит,
Зорко в монитор глядит!
[Профиль]  [ЛС] 
Показать сообщения:    
Ответить на тему

Текущее время: Сегодня 06:00

Часовой пояс: GMT + 4



Вы не можете начинать темы
Вы не можете отвечать на сообщения
Вы не можете редактировать свои сообщения
Вы не можете удалять свои сообщения
Вы не можете голосовать в опросах
Вы не можете прикреплять файлы к сообщениям
Вы не можете скачивать файлы

▼ Вниз