ML
     
  Уважаемый Гость!
Вы можете поддержать проект и зарегистрироваться у наших партнеров - онлайн-стратегия MyLands. При регистрации в игре Вы получите код, который сможете активировать после регистрации на pirat.ca и получить 1000 дублонов.

Ваш код:
1a5b0a965618b2c406d4279ec9924ee6282c60cf
 
     

Психовиль / Psychoville / Сезон: 1-2 / Серии: 1-14 (14) (Мэтт Липси / Matt Lipsey) [2009-2011 гг., драма, комедия, триллер, BDRip, 720p] DVO (НСТ) + MVO (2х2) + Original (Eng) + Sub (Rus, Eng)

Ответить на тему
 
Автор
Сообщение

Пост 08-Окт-2015 21:01

[Q] 

TERMOS

Легенда

-Психовиль / Psychoville
(Все сезоны)
-- Производство: Великобритания
Жанр: драма, комедия, триллер
Год выпуска: 2009-2011 гг.
Продолжительность: 14х ~00:25:00
Перевод: Профессиональный (двухголосый, закадровый) [НСТ]
Перевод 2: Профессиональный (многоголосый, закадровый) [2х2]
Оригинальный аудиопоток: английский
Режиссер: Мэтт Липси / Matt Lipsey-В ролях: Рис Шерсмит, Стив Пембертон, Дэниэл Калуя, Дэйзи Хаггард, Дон Френч, Лиза Хэммонд, Айлин Эткинс, Дэниэл Ингс, Имелда Стонтон, Джейсон Томпкин, ...-Описание: Все они живут в разных уголках Британии: Дэвид — маменькин сынок с наклонностями серийного убийцы и его мамашка Морин, Мистер Джелли — злобный клоун с крюком вместо руки, мистер Ломакс — слепой старец-миллионер, собирающий очень странную коллекцию, Джой — ненормальная акушерка с ребенком-куклой и Роберт, карлик влюбленный в Белоснежку. Но всех их связывает таинственный шантажист, в один прекрасный день, пославший им письма, в которых написана только одна фраза: «Я знаю, что вы сделали…»
- -Качество видео: BDRip
Контейнер: MKV
Стандарт разрешения: 720p
Видео кодек: H.264/AVC
Аудио кодек: AC3
Видео: 1280x720 at 25,000 fps, ~5800 - 8700 kbps avg
Аудио: Russian: 48 kHz, AC3, 2/0 (L,R) ch, ~192.00 kbps avg |Двухголосый закадровый, НСТ|
Аудио #2: Russian: 48 kHz, AC3, 2/0 (L,R) ch, ~192.00 kbps avg |Многоголосый закадровый, 2х2| |Только первый сезон и Halloween Special|
Аудио #3: English: 48 kHz, AC3, 2/0 L,R ch, ~320|448.00 kbps avg
Аудио #4: English: 48 kHz, AC3, 2/0 L,R ch, ~192.00 kbps avg |Commentary|
Cубтитры: Russian Forced (.ass) Russian Forced (Halloween Special Extended), English (.srt)
• Запись звука: Justin, HPotter, Beer kolesik Drinkers.
• Сведение: Justin, HPotter.
• Halloween Special представлен в двух версиях, обычная с озвучкой 2х2 и Halloween Special Extended, длиннее на 11 минут, с двумя вариантами: 2х2 + оригинал + сабы и 2х2 + foxlight.
• НСТ - Ирина Маликова и Александр Котов
• 2х2 - Диомид Виноградов, Людмила Гнилова и Денис Некрасов
• Сохранены оригинальные чаптеры как на Blu-ray.
Код:
Format                      : Matroska
Format version              : Version 4 / Version 2
File size                   : 1.62 GiB
Duration                    : 28mn 59s
Overall bit rate            : 7 978 Kbps
Encoded date                : UTC 2016-11-03 20:31:07
Writing application         : mkvmerge v9.5.0 ('Quiet Fire') 64bit
Writing library             : libebml v1.3.4 + libmatroska v1.4.5
DURATION                    : 00:28:59.360000000
NUMBER_OF_FRAMES            : 54355
NUMBER_OF_BYTES             : 41744640
_STATISTICS_WRITING_APP     : mkvmerge v9.5.0 ('Quiet Fire') 64bit
_STATISTICS_WRITING_DATE_UT : 2016-11-03 20:31:07
_STATISTICS_TAGS            : BPS DURATION NUMBER_OF_FRAMES NUMBER_OF_BYTES
Video
ID                          : 1
Format                      : AVC
Format/Info                 : Advanced Video Codec
Format profile              : [email protected]
Format settings, CABAC      : Yes
Format settings, ReFrames   : 9 frames
Codec ID                    : V_MPEG4/ISO/AVC
Duration                    : 28mn 59s
Bit rate                    : 6 795 Kbps
Width                       : 1 280 pixels
Height                      : 720 pixels
Display aspect ratio        : 16:9
Original display aspect rat : 16:9
Frame rate mode             : Constant
Frame rate                  : 25.000 fps
Color space                 : YUV
Chroma subsampling          : 4:2:0
Bit depth                   : 8 bits
Scan type                   : Progressive
Bits/(Pixel*Frame)          : 0.295
Stream size                 : 1.38 GiB (85%)
Title                       : Psychoville. Series 01 Episode 01 "Blackmail" UK
Writing library             : x264 core 142 r2431kMod ac76440
Encoding settings           : cabac=1 / ref=9 / deblock=1:-3:-3 / analyse=0x3:0x133 / me=umh / subme=10 / psy=1 / fade_compensate=0.00 / psy_rd=1.00:0.00 / mixed_ref=1 / me_range=32 / chroma_me=1 / trellis=2 / 8x8dct=1 / cqm=0 / deadzone=21,11 / fast_pskip=1 / chroma_qp_offset=-2 / threads=16 / lookahead_threads=2 / sliced_threads=0 / nr=0 / decimate=1 / interlaced=0 / bluray_compat=0 / constrained_intra=0 / fgo=0 / bframes=7 / b_pyramid=2 / b_adapt=2 / b_bias=0 / direct=3 / weightb=1 / open_gop=0 / weightp=2 / keyint=250 / keyint_min=23 / scenecut=40 / intra_refresh=0 / rc_lookahead=40 / rc=crf / mbtree=0 / crf=17.0000 / qcomp=0.65 / qpmin=0 / qpmax=40 / qpstep=4 / vbv_maxrate=50000 / vbv_bufsize=50000 / crf_max=0.0 / nal_hrd=none / filler=0 / ip_ratio=1.25 / pb_ratio=1.25 / aq=1:0.60
Language                    : English
Default                     : Yes
Forced                      : No
DURATION                    : 00:28:58.000000000
NUMBER_OF_FRAMES            : 43450
NUMBER_OF_BYTES             : 1511311266
_STATISTICS_WRITING_APP     : mkvmerge v9.5.0 ('Quiet Fire') 64bit
_STATISTICS_WRITING_DATE_UT : 2016-11-03 20:31:07
_STATISTICS_TAGS            : BPS DURATION NUMBER_OF_FRAMES NUMBER_OF_BYTES
Audio #1
ID                          : 2
Format                      : AC-3
Format/Info                 : Audio Coding 3
Mode extension              : CM (complete main)
Format settings, Endianness : Big
Codec ID                    : A_AC3
Duration                    : 28mn 59s
Bit rate mode               : Constant
Bit rate                    : 192 Kbps
Channel(s)                  : 2 channels
Channel positions           : Front: L R
Sampling rate               : 48.0 KHz
Bit depth                   : 16 bits
Compression mode            : Lossy
Stream size                 : 39.8 MiB (2%)
Title                       : AC3 2.0 @ 192 kbps - НСТ
Language                    : Russian
Default                     : Yes
Forced                      : No
Audio #2
ID                          : 3
Format                      : AC-3
Format/Info                 : Audio Coding 3
Mode extension              : CM (complete main)
Format settings, Endianness : Big
Codec ID                    : A_AC3
Duration                    : 28mn 59s
Bit rate mode               : Constant
Bit rate                    : 192 Kbps
Channel(s)                  : 2 channels
Channel positions           : Front: L R
Sampling rate               : 48.0 KHz
Bit depth                   : 16 bits
Compression mode            : Lossy
Delay relative to video     : 27ms
Stream size                 : 39.8 MiB (2%)
Title                       : AC3 2.0 @ 192 kbps - 2x2
Language                    : Russian
Default                     : No
Forced                      : No
Audio #3
ID                          : 4
Format                      : AC-3
Format/Info                 : Audio Coding 3
Mode extension              : CM (complete main)
Format settings, Endianness : Big
Codec ID                    : A_AC3
Duration                    : 28mn 59s
Bit rate mode               : Constant
Bit rate                    : 448 Kbps
Channel(s)                  : 2 channels
Channel positions           : Front: L R
Sampling rate               : 48.0 KHz
Bit depth                   : 16 bits
Compression mode            : Lossy
Stream size                 : 92.9 MiB (6%)
Title                       : AC3 2.0 @ 448 kbps
Language                    : English
Default                     : No
Forced                      : No
Audio #4
ID                          : 5
Format                      : AC-3
Format/Info                 : Audio Coding 3
Mode extension              : CM (complete main)
Format settings, Endianness : Big
Codec ID                    : A_AC3
Duration                    : 28mn 59s
Bit rate mode               : Constant
Bit rate                    : 192 Kbps
Channel(s)                  : 2 channels
Channel positions           : Front: L R
Sampling rate               : 48.0 KHz
Bit depth                   : 16 bits
Compression mode            : Lossy
Stream size                 : 39.8 MiB (2%)
Title                       : AC3 2.0 @ 192 kbps - Commentary by Steve Pemberton and Reece-Shearsmith
Language                    : English
Default                     : No
Forced                      : No
Text
ID                          : 6
Format                      : UTF-8
Codec ID                    : S_TEXT/UTF8
Codec ID/Info               : UTF-8 Plain Text
Language                    : English
Default                     : No
Forced                      : No
Menu
00:00:00.000                : en:00:00:00.000
00:06:05.600                : en:00:06:05.600
00:12:15.600                : en:00:12:15.600
00:18:18.200                : en:00:18:18.200
00:24:19.080                : en:00:24:19.080
00:28:25.320                : en:00:28:25.320
Download / Скачать

Хотите скачать бесплатно? Зарегистрируйтесь на сайте (ссылка на регистрацию). Pirat.ca - самый быстрый торрент трекер в рунете!

Как скачивать  ·   Что такое торрент  ·   Рейтинг и ограничения



Последний раз редактировалось: TERMOS (2016-11-05 00:53), всего редактировалось 4 раз(а)

Пост 08-Окт-2015 21:54 (спустя 52 минуты)

Топик был перенесен из форума Зарубежные сериалы (Трюм) в форум Сериалы в эфире
Андря
 

TERMOS ®

Легенда

12027

Пост 10-Окт-2015 20:49 (спустя 1 день 23 часа)

[Q] 

Добавлена 3-я серия. Обновите торрент-файл!

_________________
[Профиль]  [ЛС] 

GRAFIN77

Штурман

Пост 11-Окт-2015 09:57 (спустя 13 часов)

[Q] 

Народ, встаньте на раздачу

_________________
Пусть свободномыслящие, умелые люди оставляют свои творения здесь! Народ един!
[Профиль]  [ЛС] 

BraionServ1

Гроза морей

Пост 18-Окт-2015 00:56 (спустя 6 дней)

[Q] 

Различии озвучек не добовляет интереса к сериалу
[Профиль]  [ЛС] 

TERMOS ®

Легенда

12027

Пост 18-Окт-2015 20:55 (спустя 19 часов)

[Q] 

Добавлена 4-я серия. Обновите торрент-файл!

_________________
[Профиль]  [ЛС] 

ramzzess1

Шкипер

Пост 20-Окт-2015 22:12 (спустя 2 дня 1 час)

[Q] 

с фильмом не сравнить, но посмотреть нормально, спасибо!
[Профиль]  [ЛС] 

NIKROLUNGER

Флибустьер

60

Пост 30-Апр-2016 16:01 (спустя 6 месяцев 9 дней)

[Q] 

TERMOS, ты куда подевался? fd
На дворе 20-ть какая-то серия...
Будешь доделывать сей релиз? Хотел в коллекцию добавить и именно твой труд. aa
[Профиль]  [ЛС] 

TERMOS ®

Легенда

12027

Пост 03-Май-2016 01:30 (спустя 2 дня 9 часов)

[Q] 

NIKROLUNGER, на исходнике релиз заброшен... Но бывает при наличии всего сезона выкладывают. Как только - так сразу. bs

_________________
[Профиль]  [ЛС] 

TERMOS ®

Легенда

12027

Пост 05-Ноя-2016 01:00 (спустя 6 месяцев 1 день)

[Q] 

Так. Раздача заменена. Померла.... Все комментарии выше можно удалить.-Замена раздачи. Всех с прошедшим Хеллоувином... Классная черная комедия с английским юмором. Я сегодня шикарно отдохнул. Советую.

_________________
[Профиль]  [ЛС] 
Показать сообщения:    
Ответить на тему

Текущее время: Сегодня 23:51

Часовой пояс: GMT + 4



Вы не можете начинать темы
Вы не можете отвечать на сообщения
Вы не можете редактировать свои сообщения
Вы не можете удалять свои сообщения
Вы не можете голосовать в опросах
Вы не можете прикреплять файлы к сообщениям
Вы не можете скачивать файлы

▼ Вниз