ML
     
  Уважаемый Гость!
Вы можете поддержать проект и зарегистрироваться у наших партнеров - онлайн-стратегия MyLands. При регистрации в игре Вы получите код, который сможете активировать после регистрации на pirat.ca и получить 1000 дублонов.

Ваш код:
fcd618d94adc1456bccbde5047c9cd0930e4ae4d
 
     

Флэш / The Flash / Сезон: 2 / Серии: 1-23 (23) (Дэвид Наттер / David Nutter, ...) [2015 г., фантастика, фэнтези, боевик, HDTVRip, 1080p] MVO (Lostfilm, Jaskier, BaibaKo, NewStudio) + Original (Eng) + Sub (Rus, Eng)

Ответить на тему
 
Автор
Сообщение

Пост 10-Окт-2015 22:41

[Q] 

TERMOS

Легенда

-Флэш / The Flash
«Discover what makes a hero»
(2 сезон)
-- Производство: США
Жанр: фантастика, фэнтези, боевик
Год выпуска: 2015 г.
Продолжительность: 23х ~00:43:00
Перевод: Профессиональный (многоголосый, закадровый) [Lostfilm]
Перевод 2: Профессиональный (многоголосый, закадровый) [Jaskier]
Перевод 3: Профессиональный (многоголосый, закадровый) [BaibaKo]
Перевод 4: Профессиональный (многоголосый, закадровый) [NewStudio]
Оригинальный аудиопоток: английский
Режиссер: Дэвид Наттер / David Nutter, Джесси Уарн / Jesse Warn-В ролях: Грант Гастин, Кэндис Паттон, Рик Коснетт, Даниэль Панабэйкер, Карлос Валдес, Томас Кэвэна, Джесси Л. Мартин, Патрик Сабонгуй, Грег Финли, Вентворт Миллер-Описание: Из-за несчастного случая судмедэксперт Барри Аллен приобретает способность передвигаться с невероятной скоростью. Этот случай делает из него супергероя, которым он всегда мечтал стать. Защищая город, как ангел-хранитель, делая невозможное, спасая жизни со скоростью вспышки, по подсказке Оливера Куина (Стрела), он берёт себе и соответствующее имя - Флэш.
    Сериал основан на супергерое DC Comics по имени Флэш (Барри Аллен), борце с преступностью в костюме, который был создан Робертом Кнайгером, Джоном Брумом и Кармином Инфантино. Является спин-оффом сериала «Стрела» и происходит в той же вселенной.
- -Качество видео: HDTVRip
Источник: The.Flash.2014.S02.1080p.HDTV.DD5.1.x264-NTb
Контейнер: MKV
Стандарт разрешения: 1080p
Видео кодек: H.264/AVC
Аудио кодек: AC3
Видео: 1920x1080 at 23.976 fps, ~8500 kbps avg
Аудио: Russian: 48 kHz, AC3, 3/2 (L,C,R,l,r) + LFE ch, ~384.00 kbps avg |Многоголосый закадровый, Lostfilm|
Аудио #2: Russian: 48 kHz, AC3, 3/2 (L,C,R,l,r) + LFE ch, ~384.00 kbps avg |Многоголосый закадровый, Jaskier|
Аудио #3: Russian: 48 kHz, AC3, 3/2 (L,C,R,l,r) + LFE ch, ~384.00 kbps avg |Многоголосый закадровый, BaibaKo|
Аудио #4: Russian: 48 kHz, AC3, 3/2 (L,C,R,l,r) + LFE ch, ~384.00 kbps avg |Многоголосый закадровый, NewStudio|
Аудио #5: English: 48 kHz, AC3, 3/2 (L,C,R,l,r) + LFE ch, ~384.00 kbps avg
Cубтитры: Russian (Coffee Translate),English, English SDH
01. Человек, который спас Централ Сити / The Man Who Saved Central City
02. Флэш двух миров / Flash of Two Worlds
03. Семья негодяев / Family of Rogues
04. Ярость огненного шторма / The Fury of Firestorm
05. Тьма и Свет / The Darkness and the Light
06. Зум / Enter Zoom
07. Борьба Гориллы / Gorilla Warfare
08. Легенды настоящего / Legends of Today
09. Бежать, не двигаясь / Running to Stand Still
10. Потенциальная энергия / Potential Energy
11. Возвращение обратного Флэша / The Reverse-Flash Returns
12. Полоса обгона / Fast Lane
13. Добро Пожаловать на Землю-два / Welcome to Earth-2
14. Побег с Земли-два / Escape from Earth-2
15. Король Акула / King Shark
16. Траектория / Trajectory
17. Флэшбэк / Flash Back
18. Против Зума / Versus Zoom
19. Как прежде / Back to Normal
20. Раскол / Rupture
21. Сбежавший динозавр / The Runaway Dinosaur
22. Неуязвимый / Invincible
23. Гонка всей его жизни / The Race of His Life
Код:
General
Unique ID                   : 237955300646009489908451271385729699247 (0xB304861DEA7DFDEA8748ADC843078DAF)
Complete name               : X:\Uploads\Pirat.Ca\The Flash - Season 02 (2015)[1080p.HDTVRip]\The.Flash.S02E01.The.Man.Who.Saved.Central.City.1080p.HDTVRip.4xRus.Eng.mkv
Format                      : Matroska
Format version              : Version 4 / Version 2
File size                   : 3.15 GiB
Duration                    : 42mn 26s
Overall bit rate            : 10.6 Mbps
Movie name                  : Флэш  / The Flash (2015) S02E01 Тот, кто спас Централ-сити / The Man Who Saved Central City
Encoded date                : UTC 2015-10-25 07:55:29
Writing application         : mkvmerge v8.5.1 ('Where you lead I will follow') 64bit
Writing library             : libebml v1.3.3 + libmatroska v1.4.4
Attachements                : cover.jpg
Video
ID                          : 1
Format                      : AVC
Format/Info                 : Advanced Video Codec
Format profile              : [email protected]
Format settings, CABAC      : Yes
Format settings, ReFrames   : 4 frames
Codec ID                    : V_MPEG4/ISO/AVC
Duration                    : 42mn 26s
Bit rate                    : 8 496 Kbps
Width                       : 1 920 pixels
Height                      : 1 080 pixels
Display aspect ratio        : 16:9
Frame rate mode             : Constant
Frame rate                  : 23.976 fps
Color space                 : YUV
Chroma subsampling          : 4:2:0
Bit depth                   : 8 bits
Scan type                   : Progressive
Bits/(Pixel*Frame)          : 0.171
Stream size                 : 2.52 GiB (80%)
Title                       : MPEG-4 AVC @ ~8500 Kbps - HDTVRip NTb
Writing library             : x264 core 146 r2538 121396c
Encoding settings           : cabac=1 / ref=4 / deblock=1:-3:-3 / analyse=0x3:0x133 / me=umh / subme=10 / psy=1 / psy_rd=1.10:0.00 / mixed_ref=1 / me_range=32 / chroma_me=1 / trellis=2 / 8x8dct=1 / cqm=0 / deadzone=21,11 / fast_pskip=0 / chroma_qp_offset=-2 / threads=12 / lookahead_threads=2 / sliced_threads=0 / nr=0 / decimate=0 / interlaced=0 / bluray_compat=0 / constrained_intra=0 / bframes=8 / b_pyramid=2 / b_adapt=2 / b_bias=0 / direct=3 / weightb=1 / open_gop=0 / weightp=2 / keyint=250 / keyint_min=23 / scenecut=40 / intra_refresh=0 / rc_lookahead=60 / rc=crf / mbtree=0 / crf=18.0 / qcomp=0.75 / qpmin=0 / qpmax=69 / qpstep=4 / vbv_maxrate=62500 / vbv_bufsize=78125 / crf_max=0.0 / nal_hrd=none / filler=0 / ip_ratio=1.20 / pb_ratio=1.10 / aq=1:0.70
Language                    : English
Default                     : Yes
Forced                      : No
Audio #1
ID                          : 2
Format                      : AC-3
Format/Info                 : Audio Coding 3
Mode extension              : CM (complete main)
Format settings, Endianness : Big
Codec ID                    : A_AC3
Duration                    : 42mn 26s
Bit rate mode               : Constant
Bit rate                    : 384 Kbps
Channel(s)                  : 6 channels
Channel positions           : Front: L C R, Side: L R, LFE
Sampling rate               : 48.0 KHz
Bit depth                   : 16 bits
Compression mode            : Lossy
Stream size                 : 117 MiB (4%)
Title                       : AC3 5.1 @ 384 Kbps - Многоголосый закадровый, LostFilm
Language                    : Russian
Default                     : Yes
Forced                      : No
Audio #2
ID                          : 3
Format                      : AC-3
Format/Info                 : Audio Coding 3
Mode extension              : CM (complete main)
Format settings, Endianness : Big
Codec ID                    : A_AC3
Duration                    : 42mn 26s
Bit rate mode               : Constant
Bit rate                    : 384 Kbps
Channel(s)                  : 6 channels
Channel positions           : Front: L C R, Side: L R, LFE
Sampling rate               : 48.0 KHz
Bit depth                   : 16 bits
Compression mode            : Lossy
Stream size                 : 117 MiB (4%)
Title                       : AC3 5.1 @ 384 Kbps - Многоголосый закадровый, Jaskier
Language                    : Russian
Default                     : No
Forced                      : No
Audio #3
ID                          : 4
Format                      : AC-3
Format/Info                 : Audio Coding 3
Mode extension              : CM (complete main)
Format settings, Endianness : Big
Codec ID                    : A_AC3
Duration                    : 42mn 26s
Bit rate mode               : Constant
Bit rate                    : 384 Kbps
Channel(s)                  : 6 channels
Channel positions           : Front: L C R, Side: L R, LFE
Sampling rate               : 48.0 KHz
Bit depth                   : 16 bits
Compression mode            : Lossy
Stream size                 : 117 MiB (4%)
Title                       : AC3 5.1 @ 384 Kbps - Многоголосый закадровый, BaibaKo
Language                    : Russian
Default                     : No
Forced                      : No
Audio #4
ID                          : 5
Format                      : AC-3
Format/Info                 : Audio Coding 3
Mode extension              : CM (complete main)
Format settings, Endianness : Big
Codec ID                    : A_AC3
Duration                    : 42mn 26s
Bit rate mode               : Constant
Bit rate                    : 384 Kbps
Channel(s)                  : 6 channels
Channel positions           : Front: L C R, Side: L R, LFE
Sampling rate               : 48.0 KHz
Bit depth                   : 16 bits
Compression mode            : Lossy
Stream size                 : 117 MiB (4%)
Title                       : AC3 5.1 @ 384 Kbps - Многоголосый закадровый, Newstudio
Language                    : Russian
Default                     : No
Forced                      : No
Audio #5
ID                          : 6
Format                      : AC-3
Format/Info                 : Audio Coding 3
Mode extension              : CM (complete main)
Format settings, Endianness : Big
Codec ID                    : A_AC3
Duration                    : 42mn 26s
Bit rate mode               : Constant
Bit rate                    : 384 Kbps
Channel(s)                  : 6 channels
Channel positions           : Front: L C R, Side: L R, LFE
Sampling rate               : 48.0 KHz
Bit depth                   : 16 bits
Compression mode            : Lossy
Stream size                 : 117 MiB (4%)
Title                       : AC3 5.1 @ 384 Kbps
Language                    : English
Default                     : No
Forced                      : No
Text #1
ID                          : 7
Format                      : UTF-8
Codec ID                    : S_TEXT/UTF8
Codec ID/Info               : UTF-8 Plain Text
Title                       : SRT - Full - Coffee Translate
Language                    : Russian
Default                     : No
Forced                      : No
Text #2
ID                          : 8
Format                      : UTF-8
Codec ID                    : S_TEXT/UTF8
Codec ID/Info               : UTF-8 Plain Text
Title                       : SRT - Full
Language                    : English
Default                     : No
Forced                      : No
Text #3
ID                          : 9
Format                      : UTF-8
Codec ID                    : S_TEXT/UTF8
Codec ID/Info               : UTF-8 Plain Text
Title                       : SRT - Full SDH
Language                    : English
Default                     : No
Forced                      : No
Download / Скачать

Хотите скачать бесплатно? Зарегистрируйтесь на сайте (ссылка на регистрацию). Pirat.ca - самый быстрый торрент трекер в рунете!

Как скачивать  ·   Что такое торрент  ·   Рейтинг и ограничения



Последний раз редактировалось: TERMOS (2016-06-05 17:44), всего редактировалось 15 раз(а)

TERMOS ®

Легенда

12061

Пост 17-Окт-2015 19:33 (спустя 6 дней)

[Q] 

Добавлена 2-я серия. Обновите торрент-файл!

_________________
[Профиль]  [ЛС] 

TERMOS ®

Легенда

12061

Пост 26-Окт-2015 21:12 (спустя 9 дней)

[Q] 

Во все серии добавлен перевод от BaibaKo + русские субтитры + 3-я серия. Обновите торрент-файл!

_________________
[Профиль]  [ЛС] 

TERMOS ®

Легенда

12061

Пост 02-Ноя-2015 21:05 (спустя 6 дней)

[Q] 

Добавлена 4-я серия. Обновите торрент-файл!

_________________
[Профиль]  [ЛС] 

TERMOS ®

Легенда

12061

Пост 07-Ноя-2015 20:39 (спустя 4 дня)

[Q] 

Добавлена 5-я серия. Обновите торрент-файл!

_________________
[Профиль]  [ЛС] 

Han.M

Флибустьер

Пост 13-Ноя-2015 23:28 (спустя 6 дней)

[Q] 

Скорее бы весь сезон. первый очень впечатлил
[Профиль]  [ЛС] 

TERMOS ®

Легенда

12061

Пост 17-Ноя-2015 23:23 (спустя 3 дня)

[Q] 

Добавлена 6-я серия. Обновите торрент-файл!

_________________
[Профиль]  [ЛС] 

TERMOS ®

Легенда

12061

Пост 06-Дек-2015 21:59 (спустя 18 дней)

[Q] 

Пропер на 5-ю серию + добавлены 7-8 серии. Обновите торрент-файл!
P.S. 8-я серия - кроссовер со Стрелой. Продолжение в 8-ой серии четвертого сезона Стрелы.

_________________
[Профиль]  [ЛС] 

vesna_7777

Корсар

Пост 11-Дек-2015 22:48 (спустя 5 дней)

[Q] 

Когда зальют следующие?
[Профиль]  [ЛС] 

TERMOS ®

Легенда

12061

Пост 13-Дек-2015 21:45 (спустя 1 день 22 часа)

[Q] 

Добавлена 9-я серия. Обновите торрент-файл!
Продолжение 19 января 2016г.

_________________
[Профиль]  [ЛС] 

Clean_OK

Пост 06-Янв-2016 19:25 (спустя 23 дня)

[Q] 

Супер!

_________________
[Профиль]  [ЛС] 

TERMOS ®

Легенда

12061

Пост 27-Янв-2016 21:33 (спустя 21 день)

[Q] 

Пропер на озвучку Лоста в 6-й и 8-й серии. Добавлена 10-я серия. Обновите торрент-файл!

_________________
[Профиль]  [ЛС] 

TERMOS ®

Легенда

12061

Пост 01-Фев-2016 20:25 (спустя 4 дня)

[Q] 

Добавлена 11-я серия. Обновите торрент-файл!

_________________
[Профиль]  [ЛС] 

TERMOS ®

Легенда

12061

Пост 15-Фев-2016 10:48 (спустя 13 дней)

[Q] 

Добавлены 12-13 серии. Обновите торрент-файл!

_________________
[Профиль]  [ЛС] 

TERMOS ®

Легенда

12061

Пост 27-Фев-2016 21:23 (спустя 12 дней)

[Q] 

Добавлены 14-15 серии. Обновите торрент-файл!

_________________
[Профиль]  [ЛС] 

TERMOS ®

Легенда

12061

Пост 08-Апр-2016 21:38 (спустя 1 месяц 10 дней)

[Q] 

Добавлены 16-17 серии. Обновите торрент-файл!

_________________
[Профиль]  [ЛС] 

TERMOS ®

Легенда

12061

Пост 25-Апр-2016 16:50 (спустя 16 дней)

[Q] 

Добавлена 18-я серия. В 16-й серии дорожка Лоста заменена на пропер. Обновите торрент-файл!

_________________
[Профиль]  [ЛС] 

TERMOS ®

Легенда

12061

Пост 03-Май-2016 10:37 (спустя 7 дней)

[Q] 

Добавлена 19-я серия. Обновите торрент-файл!

_________________
[Профиль]  [ЛС] 

maaximkaa

Корсар

Пост 03-Май-2016 18:35 (спустя 7 часов)

[Q] 

всегда смотрел в переводах лостов, интересно в остальных хуже или лучше...
[Профиль]  [ЛС] 

TERMOS ®

Легенда

12061

Пост 12-Май-2016 18:43 (спустя 9 дней)

[Q] 

Добавлена 20-я серия. Обновите торрент-файл! kugesan, выйди в Скайп.

_________________
[Профиль]  [ЛС] 

nitro1985

Корсар

Пост 12-Май-2016 22:07 (спустя 3 часа)

[Q] 

спасибо
Спасибо!!!
[Профиль]  [ЛС] 

TERMOS ®

Легенда

12061

Пост 05-Июн-2016 17:46 (спустя 23 дня)

[Q] 

Добавлены 21-23 серии. Замена 13-20 серий - замена видео. Финал сезона! Обновите торрент-файл!

_________________
[Профиль]  [ЛС] 
Показать сообщения:    
Ответить на тему

Текущее время: Сегодня 12:53

Часовой пояс: GMT + 4



Вы не можете начинать темы
Вы не можете отвечать на сообщения
Вы не можете редактировать свои сообщения
Вы не можете удалять свои сообщения
Вы не можете голосовать в опросах
Вы не можете прикреплять файлы к сообщениям
Вы не можете скачивать файлы

▼ Вниз