ML
     
  Уважаемый Гость!
Вы можете поддержать проект и зарегистрироваться у наших партнеров - онлайн-стратегия MyLands. При регистрации в игре Вы получите код, который сможете активировать после регистрации на pirat.ca и получить 1000 дублонов.

Ваш код:
5f4e94775bc0501caff7b254e79328d304c817d9
 
     

Последнее королевство / The Last Kingdom / Сезон: 1 / Серии: 8 из 8 (Энтони Бирн / Anthony Byrne, ...) [2015 г., боевик, мелодрама, история, ..., WEB-DLRip] MVO (AlexFilm) + Original (Eng) [Финал сезона]

Ответить на тему
 
Автор
Сообщение

Пост 15-Окт-2015 10:44

[Q] 

kugesan

Последнее королевство
The Last Kingdom
- Производство: Великобритания
Год выпуска: 2015
Жанр: боевик, мелодрама, история-Озвучка: Студия
Перевод: Многоголосый закадровый, профессиональный
Оригинальный аудиопоток: английский-Автор перевода: Константин Кривоногов
Роли озвучивали: Светлана Чистохина, Михаил Суслов, Владими Курдов, Роман Сопко, Михаил Алексеев,
Монтаж и сведение звука: Михаил Шорыгин
Постер: Андрей Шапал-Премьера (мир): 10 октября 2015-Режиссер: Энтони Бирн / Anthony Byrne, Бен Чанан / Ben Chanan, Питер Хор / Peter Hoar, ...
В главных ролях: Александр Дреймон, Николас Роу, Эмили Кокс, Rune Temte, Иэн Харт, Дэвид Доусон, Джозеф Миллсон, Томас В. Габриэльссон, Хеннинг Валин Якобсен, Герард Кернс, ...-Описание фильма:
Сюжет рассказывает о временах правления короля Уэссекса Альфреда Великого, сумевшего отвоевать английские земли у датских викингов — заморских захватчиков. Главным героем повествования выступает ещё в младенчестве похищенный данами Утред — потомок благородного саксонского рода. Воспитанный как викинг, в очень непростой момент жизненного выбора молодой воин должен будет решить для себя, чью сторону он примет в решающих сражениях за судьбу древней Британии.-Сезон: 1
Серии: 8 из 8 серий
Продолжительность: ~ 00:59:00 мин серия-Качество видео: WEB-DLRip
Формат: AVI
Видеокодек: XviD
Аудиокодек: Mp3
Видео: MPEG-4 Visual at 1403 Кбит/сек: 720 x 400 (1.800) at 25.000 fps, 0.19 Бит/Пиксели
Аудио Rus: MPEG Audio at 128 Кбит/сек, 2 канала, 48,0 КГц |AlexFilm|
Аудио Eng: MPEG Audio at 128 Кбит/сек, 2 канала, 48,0 КГц |Original|
- -
Общее
Полное имя : E:\_Сериалы\_Сериалы\Последнее королевство\The Last Kingdom - Season 1 (AlexFilm) WEB-DLRip\The.Last.Kingdom.s01e01.WEB-DLRip.Rus.Eng.AlexFilm.avi
Формат : AVI
Формат/Информация : Audio Video Interleave
Размер файла : 711 Мбайт
Продолжительность : 59 м.
Общий поток : 1673 Кбит/сек
Название фильма : The Last Kingdom. 1x01 @ AlexFilm
Программа кодирования : VirtualDubMod 1.5.10.2 (build 2540/release)
Библиотека кодирования : VirtualDubMod build 2540/release
Видео
Идентификатор : 0
Формат : MPEG-4 Visual
Профиль формата : Advanced [email protected]
Параметр BVOP формата : Нет
Параметр QPel формата : Нет
Параметр GMC формата : Без точки перехода
Параметр матрицы формата : Default (H.263)
Идентификатор кодека : XVID
Идентификатор кодека/Подсказка : XviD
Продолжительность : 59 м.
Битрейт : 1403 Кбит/сек
Ширина : 720 пикселей
Высота : 400 пикселей
Соотношение сторон : 16:9
Частота кадров : 25,000 кадров/сек
Цветовое пространство : YUV
Субдискретизация насыщенности : 4:2:0
Битовая глубина : 8 бит
Тип развёртки : Прогрессивная
Метод сжатия : С потерями
Бит/(Пиксели*Кадры) : 0.195
Размер потока : 596 Мбайт (84%)
Библиотека кодирования : XviD 73
Аудио #1
Идентификатор : 1
Формат : MPEG Audio
Версия формата : Version 1
Профиль формата : Layer 3
Режим : Joint stereo
Расширение режима : MS Stereo
Идентификатор кодека : 55
Идентификатор кодека/Подсказка : MP3
Продолжительность : 59 м.
Вид битрейта : Постоянный
Битрейт : 128 Кбит/сек
Каналы : 2 канала
Частота : 48,0 КГц
Метод сжатия : С потерями
Размер потока : 54,4 Мбайт (8%)
Выравнивание : Соединение по промежуткам
Продолжительность промежутка : 40 мс. (1,00 видеокадр)
Время предзагрузки промежутка : 504 мс.
Заголовок : Russian (AlexFilm)
Библиотека кодирования : LAME3.99r
Настройки программы : -m j -V 4 -q 3 -lowpass 18 -b 128
Аудио #2
Идентификатор : 2
Формат : MPEG Audio
Версия формата : Version 1
Профиль формата : Layer 3
Режим : Joint stereo
Расширение режима : MS Stereo
Идентификатор кодека : 55
Идентификатор кодека/Подсказка : MP3
Продолжительность : 59 м.
Вид битрейта : Постоянный
Битрейт : 128 Кбит/сек
Каналы : 2 канала
Частота : 48,0 КГц
Метод сжатия : С потерями
Размер потока : 54,4 Мбайт (8%)
Выравнивание : Соединение по промежуткам
Продолжительность промежутка : 40 мс. (1,00 видеокадр)
Время предзагрузки промежутка : 504 мс.
Заголовок : English
Библиотека кодирования : LAME3.90.3
-
-Скриншоты:
-
-
Раздача ведётся путём добавления новых серий; при каждом добавлении создаётся новый торрент.
Чтобы начать докачку новой серии, пользователям необходимо сделать следующее:
1. остановить скачивание,
2. удалить старый торрент у себя из клиента (старые серии удалять не надо),
3. скачать новый торрент и запустить его у себя в клиенте вместо старого, при этом указать клиенту путь в старую папку, куда и должно происходить скачивание новых серий.
Ваш клиент при этом должен произвести хеширование (проверку) старой папки (если не производит сам - помогите ему сделать это), и будет докачивать только те серии которых у вас ещё нет. Старые серии при этом не удаляются, а продолжают раздаваться!
Eсли вы уже удалили старые серии, то предотвратить повторную закачку старых серий можно, отжав галочку в соответствующих местах при запуске нового торрента. По возможности, желательно не удалять старые серии как можно дольше, чтобы релизёр не столько продолжал раздавать старые серии, а смог сконцентрироваться на новых.
Совет для тех, кто не хочет ждать перехеширования:
Создайте ещё одну папку рядом с папкой сериала (рядом, а не в ней!!!). Каждую новую серию после удачной загрузки копируйте в новую папку так чтобы ваша основная папка всегда была пуста. Когда ваш новый торрент предложит вам закачать все файлы, выберете только последнюю. Для сидирования же укажите адрес новой папки.
Как закачать отдельный файл из торрента или докачать ранее пропущенные файлы торрента!
-
1. Открыть торрент
2. Снять галки с тех файлов торрента, которые мы не хотим закачивать. Оставляем только на нужных нам файлах (файле).
3. Нажать О.К.
В клиенте utorrent
Инструкция
1) Открыть торрент

2) Снять галки с тех файлов торрента, которые мы не хотим закачивать:
* либо вручную, снимая с каждого файла галку( скрин №1)
* либо, нажав кнопку "Снять метки (Select None)", сняв сразу со всех файлов(скрин №2)
№1

№2

Оставляем только на нужных нам файлах (файле).

3)Нажать О.К
-Добавлена восьмая, заключительная, серия первого сезона
Download / Скачать

Хотите скачать бесплатно? Зарегистрируйтесь на сайте (ссылка на регистрацию). Pirat.ca - самый быстрый торрент трекер в рунете!

Как скачивать  ·   Что такое торрент  ·   Рейтинг и ограничения



Последний раз редактировалось: kugesan (2015-12-05 23:54), всего редактировалось 2 раз(а)

Сумрак

1660

Пост 15-Окт-2015 20:36 (спустя 9 часов)

[Q] 

Решился я все таки его глянуть, так как в плане истории очень привредлив - и скажу одно мне понравился - считаю даже по первой серии более интересной чем про викингов , если все серии такими же будут . любителям исторических фильмов рекомендую к просмотру

_________________
[Профиль]  [ЛС] 

Han.M

Флибустьер

Пост 17-Окт-2015 11:29 (спустя 1 день 14 часов)

[Q] 

Очень и очень неплохо! Ждем продалжения
[Профиль]  [ЛС] 

andrey2326

Лоцман

Пост 18-Окт-2015 12:56 (спустя 1 день 1 час)

[Q] 

Хороший, качественный сериал.
[Профиль]  [ЛС] 

kugesan ®

56607

Пост 18-Окт-2015 13:21 (спустя 24 минуты)

[Q] 

Приятного просмотра!!!

_________________

В мире две бесконечности: вселенная и человеческая глупость - Альберт Эйнштен
«Можно вытащить человека из грязи, но нельзя вытащить грязь из человека»!
[Профиль]  [ЛС] 

pdb08

Легенда

Пост 22-Окт-2015 23:08 (спустя 4 дня)

[Q] 

Спасибо!!! .

_________________
[Профиль]  [ЛС] 

kugesan ®

56607

Пост 05-Дек-2015 23:55 (спустя 1 месяц 14 дней)

[Q] 

Добавлена восьмая, заключительная, серия первого сезона

_________________

В мире две бесконечности: вселенная и человеческая глупость - Альберт Эйнштен
«Можно вытащить человека из грязи, но нельзя вытащить грязь из человека»!
[Профиль]  [ЛС] 

Пост 06-Дек-2015 01:23 (спустя 1 час 28 минут)

Топик был перенесен из форума Сериалы в эфире в форум Зарубежные сериалы
Андря
 

янка-сан

Гроза морей

Пост 17-Дек-2015 20:33 (спустя 11 дней)

[Q] 

Лови бочку посмотрим
[Профиль]  [ЛС] 
Показать сообщения:    
Ответить на тему

Текущее время: Сегодня 15:39

Часовой пояс: GMT + 4



Вы не можете начинать темы
Вы не можете отвечать на сообщения
Вы не можете редактировать свои сообщения
Вы не можете удалять свои сообщения
Вы не можете голосовать в опросах
Вы не можете прикреплять файлы к сообщениям
Вы не можете скачивать файлы

▼ Вниз