ML
     
  Уважаемый Гость!
Вы можете поддержать проект и зарегистрироваться у наших партнеров - онлайн-стратегия MyLands. При регистрации в игре Вы получите код, который сможете активировать после регистрации на pirat.ca и получить 1000 дублонов.

Ваш код:
f612af22ea70acf5cbe90707ac5a076d215f8f7f
 
     

Фарго / Fargo / Сезон: 2 / Серии: 1-10 (10) (Майкл Аппендаль / Michael Uppendahl, ...) [2015 г., драма, криминал, HDTVRip, 1080p] MVO (LostFilm, Кубик в Кубе, 1 канал) + Original (Eng) + Sub (Rus, Eng)

Ответить на тему
 
Автор
Сообщение

Пост 19-Окт-2015 22:09

[Q] 

TERMOS

Легенда

-Фарго / Fargo
«In the beginning...»
(2 сезон)
-- Производство: США
Жанр: драма, криминал
Год выпуска: 2015 г.
Продолжительность: 10х ~00:50:00
Перевод: Профессиональный (многоголосый, закадровый) [LostFilm]
Перевод 2: Профессиональный (многоголосый, закадровый) [Кубик в Кубе]
Перевод 3: Профессиональный (многоголосый, закадровый) [1 канал]
Оригинальный аудиопоток: английский
Режиссер: Майкл Аппендаль / Michael Uppendahl, Рэндолл Айнхорн / Randall Einhorn, ...-В ролях: Патрик Уилсон, Кирстен Данст, Джесси Племонс, Тед Дэнсон, Джин Смарт, Энгус Сэмпсон, Адам Аркин, Брэд Манн, Зан МакКларнон, Эмили Хейн, Кейр О'Доннелл, Жюль Хобсон, Анна Каммер, Дэн Бирн, Тодд Манн, Райан О'Нан, Джесси Коллин, Дэйв Бурчилл, ...-Описание: Действие второго сезона разворачивается в 1979 году в двух городах — Су-Фолсе, штат Южная Дакота, и Луверне, штат Миннесота. Преступный клан Герхардтов узнает, что их бизнес несет убытки из-за некоего вмешательства со стороны. Но прежде чем глава клана, Отто Герхардт, успевает разобраться с обидчиком, его младший сын умудряется натворить таких дел, что полиции Луверна приходится бросить все свои дела и заниматься расследованием тройного убийства. По воле злого рока в криминальные разборки оказывается втянута обычная семейная пара — амбициозная Пегги Бломквист и ее недотепа-муж. Но ни Герхардты, ни чета Бломквистов, ни даже полиция Луверна не догадываются, какие могущественные силы собираются в самое ближайшее время приступить к реализации своих масштабных планов. Так называемая «Стратегия по расширению на север», придуманная крупными мафиози из Канзас-сити, перевернет жизни в обоих городках с ног на голову, и кровь будет литься рекой.
- - -Качество видео: HDTVRip
Контейнер: MKV
Стандарт разрешения: 1080p
Видео кодек: H.264/AVC
Аудио кодек: AC3
Видео: 1920×1080 at 23.976 fps, ~6500 kbps avg
Аудио: Russian: 48 kHz, AC3, 3/2 (L,C,R,l,r) + LFE ch, ~384.00 kbps avg |Многоголосый закадровый, LostFilm|
Аудио #2: Russian: 48 kHz, AC3, 3/2 (L,C,R,l,r) + LFE ch, ~384.00 kbps avg |Двухголосый закадровый, Кубик в Кубе| - (кроме 8-й серии)
Аудио #3: Russian: 48 kHz, AC3, 2.0 (L,R) ch, ~192.00 kbps avg |Многоголосый закадровый, 1-ый канал|
Аудио #4: English: 48 kHz, AC3, 3/2 (L,C,R,l,r) + LFE ch, ~384.00 kbps avg
Cубтитры: Russian (Forced), English
01. Waiting for Dutch / В ожидании неприятностей
02. Before the Law / Перед законом
03. The Myth of Sysiphus / Миф о Сизифе
04. Fear and Trembling / Страх и трепет
05. The Gift of the Magi / Дары волхвов
06. Rhinoceros / Носороги
07. Did You Do This? No, You Did It! / Это ты сделал? Нет, это ты сделал!
08: Loplop / Лоплоп
09: The Castle / Замок
10: Palindrome / Палиндром
Код:
General
Unique ID                   : 239489763515282405785557300891804154809 (0xB42C0CFA348F09F19B8D4CA3A7C2BBB9)
Complete name               : Y:\Uploads\Pirat.Ca\Fargo - Season 02 (2015)[1080p.HDTVRip.Rus.Eng]\Fargo.S02E01.1080p.HDTVRip.3xRus.Eng.HDCLUB.mkv
Format                      : Matroska
Format version              : Version 2
File size                   : 2.91 GiB
Duration                    : 49mn 47s
Overall bit rate            : 8 374 Kbps
Movie name                  : Fargo | Season 2 (2015) | 01 - Waiting for Dutch (Release for HDCLUB)
Encoded date                : UTC 2015-10-18 21:30:30
Writing application         : mkvmerge v8.3.0 ('Over the Horizon') 64bit
Writing library             : libebml v1.3.1 + libmatroska v1.4.2
Video
ID                          : 1
Format                      : AVC
Format/Info                 : Advanced Video Codec
Format profile              : [email protected]
Format settings, CABAC      : Yes
Format settings, ReFrames   : 4 frames
Codec ID                    : V_MPEG4/ISO/AVC
Duration                    : 49mn 47s
Bit rate                    : 6 863 Kbps
Width                       : 1 920 pixels
Height                      : 1 080 pixels
Display aspect ratio        : 16:9
Frame rate mode             : Constant
Frame rate                  : 23.976 fps
Color space                 : YUV
Chroma subsampling          : 4:2:0
Bit depth                   : 8 bits
Scan type                   : Progressive
Bits/(Pixel*Frame)          : 0.138
Stream size                 : 2.39 GiB (82%)
Title                       : Fargo | Season 2 (2015) | 01 - Waiting for Dutch (В ожидании неприятностей)
Writing library             : x264 core 144 r2525 40bb568
Encoding settings           : cabac=1 / ref=4 / deblock=1:-3:-3 / analyse=0x3:0x133 / me=umh / subme=10 / psy=1 / psy_rd=1.10:0.00 / mixed_ref=1 / me_range=32 / chroma_me=1 / trellis=2 / 8x8dct=1 / cqm=0 / deadzone=21,11 / fast_pskip=0 / chroma_qp_offset=-2 / threads=12 / lookahead_threads=2 / sliced_threads=0 / nr=0 / decimate=0 / interlaced=0 / bluray_compat=0 / constrained_intra=0 / bframes=8 / b_pyramid=2 / b_adapt=2 / b_bias=0 / direct=3 / weightb=1 / open_gop=0 / weightp=2 / keyint=250 / keyint_min=23 / scenecut=40 / intra_refresh=0 / rc_lookahead=60 / rc=crf / mbtree=0 / crf=20.0 / qcomp=0.80 / qpmin=0 / qpmax=69 / qpstep=4 / vbv_maxrate=62500 / vbv_bufsize=78125 / crf_max=0.0 / nal_hrd=none / filler=0 / ip_ratio=1.20 / pb_ratio=1.10 / aq=3:0.70
Language                    : English
Default                     : Yes
Forced                      : No
Audio #1
ID                          : 2
Format                      : AC-3
Format/Info                 : Audio Coding 3
Mode extension              : CM (complete main)
Format settings, Endianness : Big
Codec ID                    : A_AC3
Duration                    : 49mn 47s
Bit rate mode               : Constant
Bit rate                    : 384 Kbps
Channel(s)                  : 6 channels
Channel positions           : Front: L C R, Side: L R, LFE
Sampling rate               : 48.0 KHz
Bit depth                   : 16 bits
Compression mode            : Lossy
Stream size                 : 137 MiB (5%)
Title                       : DD 5.1 @ 384 kbps (LostFilm)
Language                    : Russian
Default                     : Yes
Forced                      : No
Audio #2
ID                          : 3
Format                      : AC-3
Format/Info                 : Audio Coding 3
Mode extension              : CM (complete main)
Format settings, Endianness : Big
Codec ID                    : A_AC3
Duration                    : 49mn 47s
Bit rate mode               : Constant
Bit rate                    : 384 Kbps
Channel(s)                  : 6 channels
Channel positions           : Front: L C R, Side: L R, LFE
Sampling rate               : 48.0 KHz
Bit depth                   : 16 bits
Compression mode            : Lossy
Stream size                 : 137 MiB (5%)
Title                       : DD 5.1 @ 384 kbps (Кубик в Кубе)
Language                    : Russian
Default                     : No
Forced                      : No
Audio #3
ID                          : 4
Format                      : AC-3
Format/Info                 : Audio Coding 3
Mode extension              : CM (complete main)
Format settings, Endianness : Big
Codec ID                    : A_AC3
Duration                    : 49mn 47s
Bit rate mode               : Constant
Bit rate                    : 192 Kbps
Channel(s)                  : 2 channels
Channel positions           : Front: L R
Sampling rate               : 48.0 KHz
Bit depth                   : 16 bits
Compression mode            : Lossy
Stream size                 : 68.4 MiB (2%)
Title                       : DD 2.0 @ 192 kbps (1-ый канал)
Language                    : Russian
Default                     : No
Forced                      : No
Audio #4
ID                          : 5
Format                      : AC-3
Format/Info                 : Audio Coding 3
Mode extension              : CM (complete main)
Format settings, Endianness : Big
Codec ID                    : A_AC3
Duration                    : 49mn 47s
Bit rate mode               : Constant
Bit rate                    : 384 Kbps
Channel(s)                  : 6 channels
Channel positions           : Front: L C R, Side: L R, LFE
Sampling rate               : 48.0 KHz
Bit depth                   : 16 bits
Compression mode            : Lossy
Stream size                 : 137 MiB (5%)
Title                       : DD 5.1 @ 384 kbps
Language                    : English
Default                     : No
Forced                      : No
Text #1
ID                          : 6
Format                      : UTF-8
Codec ID                    : S_TEXT/UTF8
Codec ID/Info               : UTF-8 Plain Text
Title                       : Forced
Language                    : Russian
Default                     : Yes
Forced                      : Yes
Text #2
ID                          : 7
Format                      : UTF-8
Codec ID                    : S_TEXT/UTF8
Codec ID/Info               : UTF-8 Plain Text
Language                    : English
Default                     : No
Forced                      : No
Download / Скачать

Хотите скачать бесплатно? Зарегистрируйтесь на сайте (ссылка на регистрацию). Pirat.ca - самый быстрый торрент трекер в рунете!

Как скачивать  ·   Что такое торрент  ·   Рейтинг и ограничения



Последний раз редактировалось: TERMOS (2016-01-28 23:47), всего редактировалось 5 раз(а)

TERMOS ®

Легенда

12068

Пост 28-Окт-2015 10:57 (спустя 8 дней)

[Q] 

Добавлена 2-я серия. Обновите торрент-файл!

_________________
[Профиль]  [ЛС] 

alex_dry

Гроза морей

Пост 29-Окт-2015 01:37 (спустя 14 часов)

[Q] 

Автору респект!!! Лови бочку
[Профиль]  [ЛС] 

TERMOS ®

Легенда

12068

Пост 03-Ноя-2015 08:21 (спустя 5 дней)

[Q] 

Добавлена 3-я серия. Обновите торрент-файл!

_________________
[Профиль]  [ЛС] 

TERMOS ®

Легенда

12068

Пост 23-Ноя-2015 20:36 (спустя 20 дней)

[Q] 

Добавлена 4-я серия. Обновите торрент-файл!

_________________
[Профиль]  [ЛС] 

TERMOS ®

Легенда

12068

Пост 24-Ноя-2015 20:09 (спустя 23 часа)

[Q] 

Добавлена 5-я серия. Обновите торрент-файл!

_________________
[Профиль]  [ЛС] 

TERMOS ®

Легенда

12068

Пост 11-Дек-2015 13:52 (спустя 16 дней)

[Q] 

Добавлены 6-7 серии + замена 1-й серии (пропер озвучки от Кубик в Кубе). Обновите торрент-файл!

_________________
[Профиль]  [ЛС] 

TERMOS ®

Легенда

12068

Пост 28-Янв-2016 23:49 (спустя 1 месяц 17 дней)

[Q] 

Добавлены последние серии. В 8-й серии нет озвучки Кубиков - надоело ждать. Финал сезона! Обновите торрент-файл!

_________________
[Профиль]  [ЛС] 

s_s

Гроза морей

Пост 05-Фев-2016 21:21 (спустя 7 дней)

[Q] 

Как во время я вспомнил про Фарго, как хорошо удачно забыть про сериал, а потом вспомнить когда он уже вышел:) Спасибо за раздачу!

_________________
в себе самом добра со злом
[Профиль]  [ЛС] 

TERMOS ®

Легенда

12068

Пост 06-Фев-2016 11:52 (спустя 14 часов)

[Q] 

s_s, везёт)))

_________________
[Профиль]  [ЛС] 
Показать сообщения:    
Ответить на тему

Текущее время: Сегодня 00:28

Часовой пояс: GMT + 4



Вы не можете начинать темы
Вы не можете отвечать на сообщения
Вы не можете редактировать свои сообщения
Вы не можете удалять свои сообщения
Вы не можете голосовать в опросах
Вы не можете прикреплять файлы к сообщениям
Вы не можете скачивать файлы

▼ Вниз