ML
     
  Уважаемый Гость!
Вы можете поддержать проект и зарегистрироваться у наших партнеров - онлайн-стратегия MyLands. При регистрации в игре Вы получите код, который сможете активировать после регистрации на pirat.ca и получить 1000 дублонов.

Ваш код:
11f49771fdf057c9d51610e4a0925c3b46ddb655
 
     

Легенды / Legends / Сезон: 1 / Серии: 1-10 (Брэд Тернер / Brad Turner, Джефф Т. Томас / Jeff T. Thomas, Джон Беринг / John Behring) [2014 г., боевик, триллер, драма, криминал, WEB-DLRip] MVO (LostFilm)

Ответить на тему
 
Автор
Сообщение

Пост 01-Ноя-2015 18:43

[Q] 

Элез

Флибустьер

-Легенды / Legends-- Производство: США
Жанр: боевик, триллер, драма, криминал
Год выпуска: 2014 г.
Продолжительность: 42 мин
Мировая премьера: 13 августа 2014
Перевод: Профессиональный (многоголосый, закадровый) [LostFilm]
Режиссер: Брэд Тернер / Brad Turner, Джефф Т. Томас / Jeff T. Thomas, Джон Беринг / John Behring-В ролях: Шон Бин, Али Лартер, Тина Мажорино, Эмбер Валлетта, Мэйсон Кук, Стив Харрис, Моррис Честнат, Маршалл Белл, Алон Абутбул, Кристиан Клеменсон, Дэвид Мюнье, Роксана Бруссо, Алекса Гилмор, Сэмми Шейк, Блейк Роббинс, Gillian Brashear, Омид Абтахи, Кирк Асеведо, Кристин Адамс, Роб Майес ... »-Описание: Работая на ФБР, Мартин специализировался на работе под глубоким прикрытием, буквально полностью перевоплощался в другую личность, теперь же он простой частный детектив. Жизнь главного героя круто меняется, когда Мартин узнает, что, возможно, он не тот, кем себя считает. И теперь ему предстоит докопаться до истины: он страдает заурядным раздвоением личности или является частью тайного плана ЦРУ?-
Качество видео: WEB-DLRip
Контейнер: AVI
Видео кодек: XviD
Аудио кодек: MP3
Видео: MPEG-4 Visual at 1486 Кбит/сек : 720 x 400 (1.800) at 23.976 fps Бит/Пиксели: 0.215
Аудио: MPEG Audio at 192 Кбит/сек : 2 канала, 48,0 КГц
Cубтитры: отсутствуют
Общее
Полное имя : E:\µTorrent\загрузки\Легенды (S01) LF\Legends.S01E01.rus.LostFilm.TV.avi
Формат : AVI
Формат/Информация : Audio Video Interleave
Размер файла : 506 Мбайт
Продолжительность : 41 м.
Режим общего битрейта : Переменный
Общий поток : 1688 Кбит/сек
Программа кодирования : Nandub v1.0rc2
Библиотека кодирования : Nandub build 1853/release
Видео
Идентификатор : 0
Формат : MPEG-4 Visual
Профиль формата : Advanced [email protected]
Параметр BVOP формата : Нет
Параметр QPel формата : Нет
Параметр GMC формата : Без точки перехода
Параметр матрицы формата : Default (H.263)
Идентификатор кодека : XVID
Идентификатор кодека/Подсказка : XviD
Продолжительность : 41 м.
Битрейт : 1486 Кбит/сек
Ширина : 720 пикселей
Высота : 400 пикселей
Соотношение сторон : 16:9
Частота кадров : 23,976 кадра/сек
Цветовое пространство : YUV
Субдискретизация насыщенности : 4:2:0
Битовая глубина : 8 бит
Тип развёртки : Прогрессивная
Метод сжатия : С потерями
Бит/(Пиксели*Кадры) : 0.215
Размер потока : 446 Мбайт (88%)
Библиотека кодирования : XviD 1.2.1 (UTC 2008-12-04)
Аудио
Идентификатор : 1
Формат : MPEG Audio
Версия формата : Version 1
Профиль формата : Layer 3
Режим : Joint stereo
Расширение режима : MS Stereo
Идентификатор кодека : 55
Идентификатор кодека/Подсказка : MP3
Продолжительность : 41 м.
Вид битрейта : Переменный
Битрейт : 192 Кбит/сек
Каналы : 2 канала
Частота : 48,0 КГц
Метод сжатия : С потерями
Размер потока : 56,6 Мбайт (11%)
Выравнивание : Соединение по промежуткам
Продолжительность промежутка : 24 мс. (0,58 видеокадр)
Время предзагрузки промежутка : 492 мс.
Библиотека кодирования : LAME3.97b
Настройки программы : -m j -V 4 -q 3 -lowpass 18.6 --abr 192
Download / Скачать

Хотите скачать бесплатно? Зарегистрируйтесь на сайте (ссылка на регистрацию). Pirat.ca - самый быстрый торрент трекер в рунете!

Как скачивать  ·   Что такое торрент  ·   Рейтинг и ограничения



Последний раз редактировалось: Элез (2015-11-02 08:47), всего редактировалось 3 раз(а)

Элез ®

Флибустьер

15331

Пост 01-Ноя-2015 18:44 (спустя 1 минута)

[Q] 

Есть второй сезон 1 серия.Но не знаю кто зальет.Смотрите с удовольствием)

_________________

[Профиль]  [ЛС] 

EDVAR

Легенда

Пост 01-Ноя-2015 18:56 (спустя 12 минут)

[Q] 

Благодарю Элез!

_________________
"Как других судить-вы судьи.Как себя-вы адвокаты"
[Профиль]  [ЛС] 

kugesan

56710

Пост 01-Ноя-2015 21:44 (спустя 2 часа 47 минут)

[Q] 

Элез, Режиссеров поправь...

_________________

В мире две бесконечности: вселенная и человеческая глупость - Альберт Эйнштен
«Можно вытащить человека из грязи, но нельзя вытащить грязь из человека»!
[Профиль]  [ЛС] 

Элез ®

Флибустьер

15331

Пост 01-Ноя-2015 22:24 (спустя 40 минут)

[Q] 

kugesan, не совсем понял про режиссеров?

_________________

[Профиль]  [ЛС] 

Элез ®

Флибустьер

15331

Пост 02-Ноя-2015 05:43 (спустя 7 часов)

[Q] 

kugesan,исправил

_________________

[Профиль]  [ЛС] 

alex_dry

Гроза морей

Пост 02-Ноя-2015 11:13 (спустя 5 часов)

[Q] 

Спасибо!!! Лови бочку
[Профиль]  [ЛС] 

Элез ®

Флибустьер

15331

Пост 02-Ноя-2015 17:39 (спустя 6 часов)

[Q] 

Мне очень плохо пацаны))))

_________________

[Профиль]  [ЛС] 
Показать сообщения:    
Ответить на тему

Текущее время: Сегодня 03:12

Часовой пояс: GMT + 4



Вы не можете начинать темы
Вы не можете отвечать на сообщения
Вы не можете редактировать свои сообщения
Вы не можете удалять свои сообщения
Вы не можете голосовать в опросах
Вы не можете прикреплять файлы к сообщениям
Вы не можете скачивать файлы

▼ Вниз