ML
     
  Уважаемый Гость!
Вы можете поддержать проект и зарегистрироваться у наших партнеров - онлайн-стратегия MyLands. При регистрации в игре Вы получите код, который сможете активировать после регистрации на pirat.ca и получить 1000 дублонов.

Ваш код:
ee1288b6f7c09d9d2cb2a0f972aba30460ce9333
 
     

Ash vs Evil Dead / Эш против Зловещих мертвецов / Сезон: 1 / Серии: 1-10 (10) (Майкл Херст / Michael Hurst, ...) [2015 г., ужасы, боевик, комедия, HDTVRip, 1080р] MVO (Amedia,AlexFilm,NewStudio,Jaskier) + K3 + VO (Гоблин)+Original (Eng)+Sub (Rus,Eng)

Страницы :  1, 2  След.

Ответить на тему
 
Автор
Сообщение

Пост 02-Ноя-2015 11:13

[Q] 

TERMOS

Легенда

-Ash vs Evil Dead / Эш против Зловещих мертвецов
(1 сезон)
-- Производство: США | Starz
Жанр: ужасы, боевик, комедия
Год выпуска: 2015 г.
Продолжительность: 1 серия ~00:40:00, 2-10 серии ~00:26:00
Мировая премьера: 31 октября 2015
Российская премьера: 31 октября 2015
Перевод: Профессиональный (многоголосый, закадровый) [Amedia]
Перевод 2: Профессиональный (одноголосый, закадровый) [Д. Пучков (Гоблин)]
Перевод 3: Профессиональный (двухголосый, закадровый) [Кубик в кубе]
Перевод 4: Профессиональный (многоголосый, закадровый) [AlexFilm]
Перевод 5: Профессиональный (многоголосый, закадровый) [NewStudio]
Перевод 6: Профессиональный (многоголосый, закадровый) [Jaskier]
Оригинальный аудиопоток: английский
Режиссер: Майкл Херст / Michael Hurst, Рик Джейкобсон / Rick Jacobson, Сэм Рэйми / Sam Raimi-В ролях: Брюс Кэмпбелл, Джилл Мари Джонс, Дэна ДеЛоренцо, Люси Лоулесс, Рэй Сантьяго, Мими Роджерс, Хемки Мадера, Фил Пелетон, Ido Drent, Дэмиен Гарви-Описание: Последние тридцать лет Эш старательно избегал всего, что связано с воспоминаниями о зловещих мертвецах, но когда очередное нашествие дедайтов грозит уничтожить все все население планеты, Эш становится единственным шансом человечества на спасение.
- -Качество видео: HDTVRip
Контейнер: MKV
Видео кодек: H.264/AVC
Аудио кодек: AC3
Видео: 1920x1080 at 25.000 fps, ~5000 kbps avg
Аудио: Russian: 48 kHz, AC3, 3/2 (L,C,R,l,r) + LFE ch, ~384.00 kbps avg |Многоголосый закадровый, Amedia|
Аудио #2: Russian: 48 kHz, AC3, 2.0 (L,R) ch, ~192.00 kbps avg |Одноголосый закадровый, Goblin|
Аудио #3: Russian: 48 kHz, AC3, 2.0 (L,R) ch, ~192.00 kbps avg |Двухголосый закадровый, Кубик в кубе| - ненормативная лексика
Аудио #4: Russian: 48 kHz, AC3, 2.0 (L,R) ch, ~192.00 kbps avg |Многоголосый закадровый, AlexFilm| - ненормативная лексика
Аудио #5: Russian: 48 kHz, AC3, 2.0 (L,R) ch, ~192.00 kbps avg |Многоголосый закадровый, NewStudio| - ненормативная лексика
Аудио #6: Russian: 48 kHz, AC3, 2.0 (L,R) ch, ~192.00 kbps avg |Многоголосый закадровый, Jaskier| - ненормативная лексика
Аудио #7: English: 48 kHz, AC3, 3/2 (L,C,R,l,r) + LFE ch, ~384.00 kbps avg
Cубтитры: Russian, English
01. Эль Хефе / El Jefe
02. Наживка / Bait
03. Потусторонние книги / Books from Beyond
04. Брухо / Brujo
05. Носитель / The Host
06. Убийца убийц / The Killer of Killers
07. Щас рванёт! / Fire in the Hole
08. Прах к Эшу / Ashes to Ashes
09. Переплёт из плоти / Bound in Flesh
10. Тёмный / The Dark One
Код:
Format                      : Matroska
Format version              : Version 2
File size                   : 1.84 GiB
Duration                    : 39mn 8s
Overall bit rate            : 6 726 Kbps
Movie name                  : Ash vs Evil Dead 1x01
Encoded date                : UTC 2016-01-06 09:25:17
Writing application         : mkvmerge v7.9.0 ('Birds') 64bit
Writing library             : libebml v1.3.1 + libmatroska v1.4.2
DURATION                    : 00:39:08.512000000
NUMBER_OF_FRAMES            : 73391
NUMBER_OF_BYTES             : 56364288
_STATISTICS_WRITING_APP     : mkvmerge v7.9.0 ('Birds') 64bit
_STATISTICS_WRITING_DATE_UT : 2016-01-06 09:25:17
_STATISTICS_TAGS            : BPS DURATION NUMBER_OF_FRAMES NUMBER_OF_BYTES
Video
ID                          : 1
Format                      : AVC
Format/Info                 : Advanced Video Codec
Format profile              : [email protected]
Format settings, CABAC      : Yes
Format settings, ReFrames   : 4 frames
Codec ID                    : V_MPEG4/ISO/AVC
Duration                    : 39mn 8s
Bit rate                    : 5 000 Kbps
Width                       : 1 920 pixels
Height                      : 1 080 pixels
Display aspect ratio        : 16:9
Frame rate mode             : Constant
Frame rate                  : 25.000 fps
Color space                 : YUV
Chroma subsampling          : 4:2:0
Bit depth                   : 8 bits
Scan type                   : Progressive
Bits/(Pixel*Frame)          : 0.096
Stream size                 : 1.33 GiB (72%)
Title                       : Ash vs Evil Dead 1x01
Writing library             : x264 core 142 r2491 24e4fed
Encoding settings           : cabac=1 / ref=3 / deblock=1:1:-1 / analyse=0x3:0x133 / me=umh / subme=9 / psy=1 / psy_rd=1.00:0.00 / mixed_ref=1 / me_range=48 / chroma_me=1 / trellis=2 / 8x8dct=1 / cqm=0 / deadzone=21,11 / fast_pskip=0 / chroma_qp_offset=-2 / threads=48 / lookahead_threads=5 / sliced_threads=0 / slices=4 / nr=0 / decimate=1 / interlaced=0 / bluray_compat=0 / constrained_intra=0 / bframes=6 / b_pyramid=2 / b_adapt=2 / b_bias=0 / direct=3 / weightb=1 / open_gop=0 / weightp=2 / keyint=250 / keyint_min=22 / scenecut=40 / intra_refresh=0 / rc_lookahead=50 / rc=2pass / mbtree=1 / bitrate=5000 / ratetol=1.0 / qcomp=0.70 / qpmin=10 / qpmax=49 / qpstep=4 / cplxblur=20.0 / qblur=0.5 / vbv_maxrate=9000 / vbv_bufsize=2500 / nal_hrd=none / filler=0 / ip_ratio=1.40 / aq=1:1.00
Language                    : English
Default                     : Yes
Forced                      : No
Audio #1
ID                          : 2
Format                      : AC-3
Format/Info                 : Audio Coding 3
Mode extension              : CM (complete main)
Format settings, Endianness : Big
Codec ID                    : A_AC3
Duration                    : 39mn 8s
Bit rate mode               : Constant
Bit rate                    : 384 Kbps
Channel(s)                  : 6 channels
Channel positions           : Front: L C R, Side: L R, LFE
Sampling rate               : 48.0 KHz
Bit depth                   : 16 bits
Compression mode            : Lossy
Stream size                 : 108 MiB (6%)
Title                       : Amedia
Language                    : Russian
Default                     : Yes
Forced                      : No
Audio #2
ID                          : 3
Format                      : AC-3
Format/Info                 : Audio Coding 3
Mode extension              : CM (complete main)
Format settings, Endianness : Big
Codec ID                    : A_AC3
Duration                    : 39mn 8s
Bit rate mode               : Constant
Bit rate                    : 192 Kbps
Channel(s)                  : 2 channels
Channel positions           : Front: L R
Sampling rate               : 48.0 KHz
Bit depth                   : 16 bits
Compression mode            : Lossy
Stream size                 : 53.8 MiB (3%)
Title                       : Goblin
Language                    : Russian
Default                     : No
Forced                      : No
Audio #3
ID                          : 4
Format                      : AC-3
Format/Info                 : Audio Coding 3
Mode extension              : CM (complete main)
Format settings, Endianness : Big
Codec ID                    : A_AC3
Duration                    : 39mn 8s
Bit rate mode               : Constant
Bit rate                    : 192 Kbps
Channel(s)                  : 2 channels
Channel positions           : Front: L R
Sampling rate               : 48.0 KHz
Bit depth                   : 16 bits
Compression mode            : Lossy
Stream size                 : 53.8 MiB (3%)
Title                       : Кубик в кубе
Language                    : Russian
Default                     : No
Forced                      : No
Audio #4
ID                          : 5
Format                      : AC-3
Format/Info                 : Audio Coding 3
Mode extension              : CM (complete main)
Format settings, Endianness : Big
Codec ID                    : A_AC3
Duration                    : 39mn 8s
Bit rate mode               : Constant
Bit rate                    : 192 Kbps
Channel(s)                  : 2 channels
Channel positions           : Front: L R
Sampling rate               : 48.0 KHz
Bit depth                   : 16 bits
Compression mode            : Lossy
Stream size                 : 53.8 MiB (3%)
Title                       : AlexFilm
Language                    : Russian
Default                     : No
Forced                      : No
Audio #5
ID                          : 6
Format                      : AC-3
Format/Info                 : Audio Coding 3
Mode extension              : CM (complete main)
Format settings, Endianness : Big
Codec ID                    : A_AC3
Duration                    : 39mn 8s
Bit rate mode               : Constant
Bit rate                    : 192 Kbps
Channel(s)                  : 2 channels
Channel positions           : Front: L R
Sampling rate               : 48.0 KHz
Bit depth                   : 16 bits
Compression mode            : Lossy
Stream size                 : 53.8 MiB (3%)
Title                       : NewStudio
Language                    : Russian
Default                     : No
Forced                      : No
Audio #6
ID                          : 7
Format                      : AC-3
Format/Info                 : Audio Coding 3
Mode extension              : CM (complete main)
Format settings, Endianness : Big
Codec ID                    : A_AC3
Duration                    : 39mn 8s
Bit rate mode               : Constant
Bit rate                    : 192 Kbps
Channel(s)                  : 2 channels
Channel positions           : Front: L R
Sampling rate               : 48.0 KHz
Bit depth                   : 16 bits
Compression mode            : Lossy
Stream size                 : 53.8 MiB (3%)
Title                       : Jaskier
Language                    : Russian
Default                     : No
Forced                      : No
Audio #7
ID                          : 8
Format                      : AC-3
Format/Info                 : Audio Coding 3
Mode extension              : CM (complete main)
Format settings, Endianness : Big
Codec ID                    : A_AC3
Duration                    : 39mn 8s
Bit rate mode               : Constant
Bit rate                    : 384 Kbps
Channel(s)                  : 6 channels
Channel positions           : Front: L C R, Side: L R, LFE
Sampling rate               : 48.0 KHz
Bit depth                   : 16 bits
Compression mode            : Lossy
Stream size                 : 108 MiB (6%)
Title                       : Original
Language                    : English
Default                     : No
Forced                      : No
Text #1
ID                          : 9
Format                      : UTF-8
Codec ID                    : S_TEXT/UTF8
Codec ID/Info               : UTF-8 Plain Text
Title                       : Amedia
Language                    : Russian
Default                     : No
Forced                      : No
Text #2
ID                          : 10
Format                      : UTF-8
Codec ID                    : S_TEXT/UTF8
Codec ID/Info               : UTF-8 Plain Text
Title                       : Original
Language                    : English
Default                     : No
Forced                      : No
Download / Скачать

Хотите скачать бесплатно? Зарегистрируйтесь на сайте (ссылка на регистрацию). Pirat.ca - самый быстрый торрент трекер в рунете!

Как скачивать  ·   Что такое торрент  ·   Рейтинг и ограничения



Последний раз редактировалось: TERMOS (2016-01-15 20:54), всего редактировалось 12 раз(а)

pdb08

Легенда

Пост 02-Ноя-2015 12:22 (спустя 1 час 8 минут)

[Q] 

Посмотрим. Спасибо.

_________________
[Профиль]  [ЛС] 

julia7473

Лоцман

Пост 02-Ноя-2015 14:52 (спустя 2 часа 30 минут)

[Q] 

Спасибо давно ждали))))
Подскажите если в курсе когда выходят серии? если кто знает?
[Профиль]  [ЛС] 

TERMOS ®

Легенда

12043

Пост 02-Ноя-2015 15:51 (спустя 59 минут)

[Q] 

julia7473, поправил список серий.

_________________
[Профиль]  [ЛС] 

BraionServ1

Гроза морей

Пост 02-Ноя-2015 16:46 (спустя 55 минут)

[Q] 

Файлик большой канечно, но смешно. На амедитековском сайте можно без скачки глянуть
[Профиль]  [ЛС] 

julia7473

Лоцман

Пост 02-Ноя-2015 16:52 (спустя 5 минут)

[Q] 

TERMOS, спасибо большое
А подскажите ещё это перевод Дмитрия Пучкова будет или амедия? или они синхронно выходят? Автору респект!!!
[Профиль]  [ЛС] 

TERMOS ®

Легенда

12043

Пост 02-Ноя-2015 17:31 (спустя 39 минут)

[Q] 

julia7473, У Амедиа свой перевод. У Д. Пучкова авторский, по заказу Амедиа. Разница по времени выхода небольшая.

_________________
[Профиль]  [ЛС] 

alex_dry

Гроза морей

Пост 02-Ноя-2015 17:51 (спустя 19 минут)

[Q] 

За Пучкова отдельное Спасибо!!!
[Профиль]  [ЛС] 

stas881

Шкипер

Пост 02-Ноя-2015 19:37 (спустя 1 час 46 минут)

[Q] 

супер.... давно ждал!!! Супер!
[Профиль]  [ЛС] 

novikov

Лоцман

Пост 02-Ноя-2015 22:19 (спустя 2 часа 42 минуты)

[Q] 

Эш вернулся, круто!!!
[Профиль]  [ЛС] 

kloctuk

3312

Пост 04-Ноя-2015 00:03 (спустя 1 день 1 час)

[Q] 

Ещё и Дим.Юрич? Вау!
Эш вернулся- старый - но всё такой же несносный ублюдок, обожаю его!!!

_________________
-выстрели еще разок. -зачем? - его душа еще танцует...
На форуме  [Профиль]  [ЛС] 

viji

Корсар

Пост 09-Ноя-2015 15:25 (спустя 5 дней)

[Q] 

Фильм шикарный получился и первая и вторая серия. Жду следующих. Брюс Кэмбелл молоток.
[Профиль]  [ЛС] 

TERMOS ®

Легенда

12043

Пост 10-Ноя-2015 00:52 (спустя 9 часов)

[Q] 

Добавлены русские субтитры + 2-я серия. Обновите торрент-файл!

_________________
[Профиль]  [ЛС] 

EDVAR

Легенда

Пост 10-Ноя-2015 00:55 (спустя 3 минуты)

[Q] 

Я Вам Благодарен!!!Посмотрим.

_________________
"Как других судить-вы судьи.Как себя-вы адвокаты"
[Профиль]  [ЛС] 

makler1970

Лоцман

Пост 11-Ноя-2015 20:12 (спустя 1 день 19 часов)

[Q] 

Вторая часть без перевода Дим.Юрича?
[Профиль]  [ЛС] 

TERMOS ®

Легенда

12043

Пост 11-Ноя-2015 22:29 (спустя 2 часа 16 минут)

[Q] 

makler1970,
Код:
Complete name               : D:\Uploads\Pirat.Ca\Ash vs Evil Dead - Season 01 (2015)[1080p.HDTVRip]\Ash.vs.Evil.Dead.S01E02.1080p.HDTVRip.Rus.Eng.mkv
Format                      : Matroska
Format version              : Version 4 / Version 2
File size                   : 1.14 GiB
Duration                    : 26mn 36s
Overall bit rate            : 6 117 Kbps
Movie name                  : Ash vs Evil Dead 1x02 (2015)
Encoded date                : UTC 2015-11-09 19:41:43
Writing application         : mkvmerge v8.5.1 ('Where you lead I will follow') 64bit
Writing library             : libebml v1.3.3 + libmatroska v1.4.4
DURATION                    : 00:24:25.595000000
NUMBER_OF_FRAMES            : 388
NUMBER_OF_BYTES             : 17678
_STATISTICS_WRITING_APP     : mkvmerge v8.5.1 ('Where you lead I will follow') 64bit
_STATISTICS_WRITING_DATE_UT : 2015-11-09 19:41:43
_STATISTICS_TAGS            : BPS DURATION NUMBER_OF_FRAMES NUMBER_OF_BYTES
Video
ID                          : 1
Format                      : AVC
Format/Info                 : Advanced Video Codec
Format profile              : [email protected]
Format settings, CABAC      : Yes
Format settings, ReFrames   : 4 frames
Codec ID                    : V_MPEG4/ISO/AVC
Duration                    : 26mn 36s
Nominal bit rate            : 5 000 Kbps
Width                       : 1 920 pixels
Height                      : 1 080 pixels
Display aspect ratio        : 16:9
Frame rate mode             : Constant
Frame rate                  : 25.000 fps
Color space                 : YUV
Chroma subsampling          : 4:2:0
Bit depth                   : 8 bits
Scan type                   : Progressive
Bits/(Pixel*Frame)          : 0.096
Title                       : Ash vs Evil Dead 1x02
Writing library             : x264 core 148 r2 7599210
Encoding settings           : cabac=1 / ref=3 / deblock=1:1:-1 / analyse=0x3:0x133 / me=umh / subme=9 / psy=1 / psy_rd=1.00:0.00 / mixed_ref=1 / me_range=48 / chroma_me=1 / trellis=2 / 8x8dct=1 / cqm=0 / deadzone=21,11 / fast_pskip=0 / chroma_qp_offset=-2 / threads=34 / lookahead_threads=3 / sliced_threads=0 / slices=4 / nr=0 / decimate=1 / interlaced=0 / bluray_compat=0 / constrained_intra=0 / bframes=6 / b_pyramid=2 / b_adapt=2 / b_bias=0 / direct=3 / weightb=1 / open_gop=0 / weightp=2 / keyint=250 / keyint_min=22 / scenecut=40 / intra_refresh=0 / rc_lookahead=50 / rc=2pass / mbtree=1 / bitrate=5000 / ratetol=1.0 / qcomp=0.70 / qpmin=10 / qpmax=49 / qpstep=4 / cplxblur=20.0 / qblur=0.5 / vbv_maxrate=9000 / vbv_bufsize=2500 / nal_hrd=none / filler=0 / ip_ratio=1.40 / aq=1:1.00
Language                    : English
Default                     : Yes
Forced                      : No
Audio #1
ID                          : 2
Format                      : AC-3
Format/Info                 : Audio Coding 3
Mode extension              : CM (complete main)
Format settings, Endianness : Big
Codec ID                    : A_AC3
Duration                    : 26mn 36s
Bit rate mode               : Constant
Bit rate                    : 640 Kbps
Channel(s)                  : 6 channels
Channel positions           : Front: L C R, Side: L R, LFE
Sampling rate               : 48.0 KHz
Bit depth                   : 16 bits
Compression mode            : Lossy
Stream size                 : 122 MiB (10%)
Title                       : Amedia
Language                    : Russian
Default                     : Yes
Forced                      : No
Audio #2
ID                          : 3
Format                      : AAC
Format/Info                 : Advanced Audio Codec
Format profile              : LC
Codec ID                    : A_AAC
Duration                    : 26mn 36s
Channel(s)                  : 2 channels
Channel positions           : Front: L R
Sampling rate               : 48.0 KHz
Compression mode            : Lossy
Title                       : Goblin
Language                    : Russian
Default                     : No
Forced                      : No
Audio #3
ID                          : 4
Format                      : AAC
Format/Info                 : Advanced Audio Codec
Format profile              : LC
Codec ID                    : A_AAC
Duration                    : 26mn 36s
Channel(s)                  : 2 channels
Channel positions           : Front: L R
Sampling rate               : 48.0 KHz
Compression mode            : Lossy
Language                    : English
Default                     : No
Forced                      : No
Text
ID                          : 5
Format                      : UTF-8
Codec ID                    : S_TEXT/UTF8
Codec ID/Info               : UTF-8 Plain Text
Language                    : Russian
Default                     : No
Forced                      : No

_________________
[Профиль]  [ЛС] 

ds73

Шкипер

Пост 12-Ноя-2015 02:54 (спустя 4 часа)

[Q] 

Порадовали! Это не унылый перезапуск ЗМ ,тут атмосфера 30летней давности фильмецов. Брюс Кэмпбелл и Сэм Рэйми -отожгли о5! Супер! Лови бочку
ЖДЁМС...

_________________
[Профиль]  [ЛС] 

arhangel3105

Морской Волк

Пост 12-Ноя-2015 23:29 (спустя 20 часов)

[Q] 

круть надо глянуть Спасибо!!!
[Профиль]  [ЛС] 

TERMOS ®

Легенда

12043

Пост 17-Ноя-2015 11:42 (спустя 4 дня)

[Q] 

Добавлена 3-я серия. Обновите торрент-файл!

_________________
[Профиль]  [ЛС] 

TERMOS ®

Легенда

12043

Пост 22-Ноя-2015 16:35 (спустя 5 дней)

[Q] 

Раздача полностью обновлена! Добавлены озвучки NewStudio, Jaskier, Kубиков. Семпл тоже заменён. В самой раздаче только название папки сохранилось. Обновите торрент-файл!

_________________
[Профиль]  [ЛС] 

viji

Корсар

Пост 22-Ноя-2015 22:26 (спустя 5 часов)

[Q] 

Уже 4-я вышла. Быстрее обновляйте ))
[Профиль]  [ЛС] 

BraionServ1

Гроза морей

Пост 23-Ноя-2015 00:32 (спустя 2 часа 6 минут)

[Q] 

viji, Проще в онлайне посмотреть, скажу к 4 серии сюжет, а с ним и накал идиотии меньше как и продолжительность серий. В ЛС ссылку на все переводы включая гоблина кину, сайт проверен без вирусов просто 15сек просмотра рекламы
[Профиль]  [ЛС] 

zachitnik

Шкипер

Пост 23-Ноя-2015 13:28 (спустя 12 часов)

[Q] 

УРАААА!!! СПАСИБО!!!!
[Профиль]  [ЛС] 

viji

Корсар

Пост 23-Ноя-2015 20:50 (спустя 7 часов)

[Q] 

BraionServ1, угу, спасибо. Мне в принципе нравится. Жаль, что серии такие короткие.
[Профиль]  [ЛС] 

TERMOS ®

Легенда

12043

Пост 26-Ноя-2015 22:22 (спустя 3 дня)

[Q] 

Добавлена 4-я серия + пропер на 3-ю. Обновите торрент-файл!

_________________
[Профиль]  [ЛС] 

civic_85

Корсар

Пост 27-Ноя-2015 12:38 (спустя 14 часов)

[Q] 

вот это флэшбэк)))

_________________
[Профиль]  [ЛС] 

muz4in

Морской Волк

Пост 27-Ноя-2015 16:46 (спустя 4 часа)

[Q] 

С переводом Пучкова должно быть забавно! Спасибо!
[Профиль]  [ЛС] 

bolikgeko

Гроза морей

211

Пост 01-Дек-2015 12:13 (спустя 3 дня)

[Q] 

Фу... Какой кошмар! Вы лучшие!
[Профиль]  [ЛС] 

civic_85

Корсар

Пост 02-Дек-2015 22:49 (спустя 1 день 10 часов)

[Q] 

а с каким переводом лучше смотреть?

_________________
[Профиль]  [ЛС] 

TERMOS ®

Легенда

12043

Пост 02-Дек-2015 23:40 (спустя 50 минут)

[Q] 

civic_85, пикантный момент в сэмпле. Посмотрите и сделайте для себя выбор.

_________________
[Профиль]  [ЛС] 
Показать сообщения:    
Ответить на тему

Текущее время: Сегодня 18:19

Часовой пояс: GMT + 4



Вы не можете начинать темы
Вы не можете отвечать на сообщения
Вы не можете редактировать свои сообщения
Вы не можете удалять свои сообщения
Вы не можете голосовать в опросах
Вы не можете прикреплять файлы к сообщениям
Вы не можете скачивать файлы

▼ Вниз