ML
     
  Уважаемый Гость!
Вы можете поддержать проект и зарегистрироваться у наших партнеров - онлайн-стратегия MyLands. При регистрации в игре Вы получите код, который сможете активировать после регистрации на pirat.ca и получить 1000 дублонов.

Ваш код:
c3360d664ceb84802c84b88ed062a5d134e2ba97
 
     

В пустыне смерти / Into the Badlands / Сезон: 1 / Серии: 6 из 6 (Дэвид Добкин / David Dobkin) [2015 г., боевик, драма, приключения, WEB-DL 1080p ] MVO Original (Eng) [ NewStudio ]

Ответить на тему
 
Автор
Сообщение

Пост 17-Ноя-2015 11:17

[Q] 

Элез

Флибустьер

-В пустыне смерти / Into the Badlands-- Производство: США
Жанр: боевик, драма, приключения
Год выпуска: 2015 г.
Продолжительность: 00:42:00
Мировая премьера: 15 ноября 2015
Российская премьера: 16 ноября 2015
Перевод: Профессиональный (многоголосый, закадровый) [ NewStudio ]
Оригинальный аудиопоток:английский
Режиссер: Дэвид Добкин / David Dobkin-В ролях: Эмили Бичем, Сара Болгер, Орла Брэйди, Мартон Чокаш, Элли Иоаннидес, Арамис Найт, Мадлен Манток, Майкл Сил, Оливер Старк, Дэниэл Ву и др.-Описание: Сериал про воина по имени Санни, сопровождающего в пути по бесплодным землям юного мальчика.-
Качество видео: WEB-DL
Контейнер: MKV
Видео кодек: MPEG-4 AVC
Аудио кодек: AC3
Видео: AVC at 4986 Кбит/сек: 1916 x 1076 at 23.976 fps
Аудио: AC-3 at 384 Кбит/сек : 6 каналов, 48,0 КГц : ru
Аудио: AC-3 at 384 Кбит/сек : 6 каналов, 48,0 КГц : en
Cубтитры: отсутствуют
Общее
Уникальный идентификатор : 221977648791215112113044697442364257848 (0xA6FF570F6DA628DE8B24CAA39EA17638)
Полное имя : E:\µTorrent\загрузки\Into.the.Badlands.s01e01.WEBDL.1080p.NewStudio.TV.mkv
Формат : Matroska
Версия формата : Version 4 / Version 2
Размер файла : 1,80 Гбайт
Продолжительность : 44 м.
Общий поток : 5871 Кбит/сек
Дата кодирования : UTC 2015-11-16 22:30:13
Программа кодирования : mkvmerge v8.2.0 ('World of Adventure') 32bit
Библиотека кодирования : libebml v1.3.1 + libmatroska v1.4.2
DURATION : 00:44:00.384000000
NUMBER_OF_FRAMES : 82512
NUMBER_OF_BYTES : 126738432
_STATISTICS_WRITING_APP : mkvmerge v8.2.0 ('World of Adventure') 32bit
_STATISTICS_WRITING_DATE_UTC : 2015-11-16 22:30:13
_STATISTICS_TAGS : BPS DURATION NUMBER_OF_FRAMES NUMBER_OF_BYTES
Видео
Идентификатор : 1
Формат : AVC
Формат/Информация : Advanced Video Codec
Профиль формата : [email protected]
Параметр CABAC формата : Да
Параметр ReFrames формата : 4 кадра
Идентификатор кодека : V_MPEG4/ISO/AVC
Продолжительность : 44 м.
Битрейт : 4986 Кбит/сек
Ширина : 1916 пикселей
Высота : 1076 пикселей
Соотношение сторон : 16:9
Режим частоты кадров : Постоянный
Частота кадров : 23,976 кадра/сек
Цветовое пространство : YUV
Субдискретизация насыщенности : 4:2:0
Битовая глубина : 8 бит
Тип развёртки : Прогрессивная
Бит/(Пиксели*Кадры) : 0.101
Размер потока : 1,53 Гбайт (85%)
Язык : English
Default : Да
Forced : Нет
Основные цвета : BT.709
Характеристики трансфера : BT.709
Коэффициенты матрицы : BT.709
colour_range : Limited
Аудио #1
Идентификатор : 2
Формат : AC-3
Формат/Информация : Audio Coding 3
Расширение режима : CM (complete main)
Параметр Endianness формата : Big
Идентификатор кодека : A_AC3
Продолжительность : 44 м.
Вид битрейта : Постоянный
Битрейт : 384 Кбит/сек
Каналы : 6 каналов
Расположение каналов : Front: L C R, Side: L R, LFE
Частота : 48,0 КГц
Битовая глубина : 16 бит
Метод сжатия : С потерями
Размер потока : 121 Мбайт (7%)
Заголовок : NewStudio.TV
Язык : Russian
Default : Да
Forced : Нет
Аудио #2
Идентификатор : 3
Формат : AC-3
Формат/Информация : Audio Coding 3
Расширение режима : CM (complete main)
Параметр Endianness формата : Big
Идентификатор кодека : A_AC3
Продолжительность : 44 м.
Вид битрейта : Постоянный
Битрейт : 384 Кбит/сек
Каналы : 6 каналов
Расположение каналов : Front: L C R, Side: L R, LFE
Частота : 48,0 КГц
Битовая глубина : 16 бит
Метод сжатия : С потерями
Размер потока : 121 Мбайт (7%)
Язык : English
Default : Нет
Forced : Нет
Download / Скачать

Хотите скачать бесплатно? Зарегистрируйтесь на сайте (ссылка на регистрацию). Pirat.ca - самый быстрый торрент трекер в рунете!

Как скачивать  ·   Что такое торрент  ·   Рейтинг и ограничения



Последний раз редактировалось: Элез (2015-12-31 22:09), всего редактировалось 9 раз(а)

Сумрак

1660

Пост 17-Ноя-2015 12:29 (спустя 1 час 12 минут)

[Q] 

Элез, опередил меня по раздаче :) Автору респект!!!

_________________
[Профиль]  [ЛС] 

Элез ®

Флибустьер

15332

Пост 17-Ноя-2015 12:52 (спустя 22 минуты)

[Q] 

Сумрак, бывает

_________________

[Профиль]  [ЛС] 

preacher82

Морской Волк

Пост 18-Ноя-2015 15:41 (спустя 1 день 2 часа)

[Q] 

Спасибо, очень неплохое начало! Лови бочку
[Профиль]  [ЛС] 

Элез ®

Флибустьер

15332

Пост 01-Дек-2015 11:29 (спустя 12 дней)

[Q] 

Добавлена вторая серия

_________________

[Профиль]  [ЛС] 

Элез ®

Флибустьер

15332

Пост 08-Дек-2015 13:13 (спустя 7 дней)

[Q] 

3 эпизода в раздаче!

_________________

[Профиль]  [ЛС] 

kugesan

56720

Пост 31-Дек-2015 18:28 (спустя 23 дня)

[Q] 

Элез, ау... сезон давно закрыт, а у тебя всего три серии. Заканчивай ужо) С наступающим.

_________________

В мире две бесконечности: вселенная и человеческая глупость - Альберт Эйнштен
«Можно вытащить человека из грязи, но нельзя вытащить грязь из человека»!
[Профиль]  [ЛС] 

Элез ®

Флибустьер

15332

Пост 31-Дек-2015 22:09 (спустя 3 часа)

[Q] 

kugesan, Забухал обновлю потом
Добавлено спустя 42 минуты 27 секунд:Добавлено 4,5,6 эпизод.

_________________

[Профиль]  [ЛС] 
Показать сообщения:    
Ответить на тему

Текущее время: Сегодня 10:09

Часовой пояс: GMT + 4



Вы не можете начинать темы
Вы не можете отвечать на сообщения
Вы не можете редактировать свои сообщения
Вы не можете удалять свои сообщения
Вы не можете голосовать в опросах
Вы не можете прикреплять файлы к сообщениям
Вы не можете скачивать файлы

▼ Вниз