ML
     
  Уважаемый Гость!
Вы можете поддержать проект и зарегистрироваться у наших партнеров - онлайн-стратегия MyLands. При регистрации в игре Вы получите код, который сможете активировать после регистрации на pirat.ca и получить 1000 дублонов.

Ваш код:
73640f24f8a0f579e128ea7346fd2db2b1009143
 
     

Rush / Натиск / Сезон: 1 / Серии: 1-10 (Билл Джонсон, Джонатан Левин, Деран Сарафьян) [2014 г., мелодрама, семейный, боевик, WEB-DLRip, 720p] MVO (IDEAFILM)

Ответить на тему
 
Автор
Сообщение

Пост 02-Дек-2015 16:19

[Q] 

Сумрак

-Rush / Натиск / Сезон: 1 / Серии: 1-10 -- Производство: Fox 21
Жанр: мелодрама, семейный, боевик
Год выпуска: 2014 г.
Продолжительность: 43 минут
Перевод: Профессиональный (многоголосый, закадровый) [IDEAFILM ]
Режиссер: Билл Джонсон, Джонатан Левин, Деран Сарафьян-В ролях: Тич Грант, Том Эллис, Лоренц Тэйт, Сара Хабель, Рик Гонсалес, Брайан Маркинсон, Роландо Молина, Билли Лаш, Одетт Эннэйбл-Описание: Доктор Уильям Раш не похож на обычного терапевта. Он не работает в больнице и чрезвычайно внимателен к любому вашему недугу до тех пор, пока ему платят и он может тусоваться в высших кругах общества. У него не было ни малейшего желания менять свой образ жизни, пока любовь всей его жизни и угрызения совести не перевернули всё вверх дном.-Качество видео: WEB-DLRip
Контейнер: AVI
Стандарт разрешения: 720p
Видео кодек: Mpeg4
Аудио кодек: AC3
Видео: 720x400, 23.976fps, 0.110 bit/pixel
Аудио: 48 kHz, 5.1, 384 kbps
Cубтитры: отсутствуют
Формат : AVI
Формат/Информация : Audio Video Interleave
Размер файла : 461 Мбайт
Продолжительность : 43 м.
Общий поток : 1495 Кбит/сек
Программа кодирования : XviD4PSP 7.0 / 55.33.100
Примечание : MATROSKA,WEBM > AVI DVD Player 720x Progressive / H264 > XVID VBR-2P 1100kbps SHQ / AC3 > COPY
Видео
Идентификатор : 0
Формат : MPEG-4 Visual
Профиль формата : Advanced [email protected]
Параметр BVOP формата : 1
Параметр QPel формата : Нет
Параметр GMC формата : Без точки перехода
Параметр матрицы формата : Default (H.263)
Идентификатор кодека : XVID
Идентификатор кодека/Подсказка : XviD
Продолжительность : 43 м.
Битрейт : 1100 Кбит/сек
Ширина : 720 пикселей
Высота : 400 пикселей
Соотношение сторон : 16:9
Частота кадров : 23,976 (24000/1001) кадра/сек
Цветовое пространство : YUV
Субдискретизация насыщенности : 4:2:0
Битовая глубина : 8 бит
Тип развёртки : Прогрессивная
Метод сжатия : С потерями
Бит/(Пиксели*Кадры) : 0.159
Размер потока : 340 Мбайт (74%)
Библиотека кодирования : XviD 64
Аудио
Идентификатор : 1
Формат : AC-3
Формат/Информация : Audio Coding 3
Расширение режима : CM (complete main)
Параметр Endianness формата : Big
Идентификатор кодека : 2000
Продолжительность : 43 м.
Вид битрейта : Постоянный
Битрейт : 384 Кбит/сек
Каналы : 6 каналов
Расположение каналов : Front: L C R, Side: L R, LFE
Частота : 48,0 КГц
Частота кадров : 31,250 кадров/сек (1536 spf)
Битовая глубина : 16 бит
Метод сжатия : С потерями
Размер потока : 119 Мбайт (26%)
Выравнивание : Соединение по промежуткам
Download / Скачать

Хотите скачать бесплатно? Зарегистрируйтесь на сайте (ссылка на регистрацию). Pirat.ca - самый быстрый торрент трекер в рунете!

Как скачивать  ·   Что такое торрент  ·   Рейтинг и ограничения

Сумрак ®

1660

Пост 02-Дек-2015 16:42 (спустя 22 минуты)

[Q] 

по поиску искал вроде у нас нет на форуме и решил выложить так как зацепил меня этот сериал , я не любитель мыльных опер в стиле санта барбара но тут намешано много чего включая и боевик. просмотрел все запоем и с удовольствием буду смотреть продолжение . в фильме мне кажется удачно совмещено и лямур и легкий экшен . кстати актер снимается в сериале люцифер . так что рекомендую к просмотру.
Мне понравилось
предположительно в России второй сезон выйдет к лету , возможно раньше ,так как сериал делал большой перерыв

_________________
[Профиль]  [ЛС] 

Пост 02-Дек-2015 16:49 (спустя 6 минут)

Топик был перенесен из форума Зарубежные сериалы (Трюм) в форум Зарубежные сериалы
Андря
 
Показать сообщения:    
Ответить на тему

Текущее время: Сегодня 22:36

Часовой пояс: GMT + 4



Вы не можете начинать темы
Вы не можете отвечать на сообщения
Вы не можете редактировать свои сообщения
Вы не можете удалять свои сообщения
Вы не можете голосовать в опросах
Вы не можете прикреплять файлы к сообщениям
Вы не можете скачивать файлы

▼ Вниз