ML
     
  Уважаемый Гость!
Вы можете поддержать проект и зарегистрироваться у наших партнеров - онлайн-стратегия MyLands. При регистрации в игре Вы получите код, который сможете активировать после регистрации на pirat.ca и получить 1000 дублонов.

Ваш код:
ba41f7961e0b4717aed6a401d955262223b8f6c4
 
     

Экспансия / The Expanse / Сезон: 1 / Серии: 1-10 (10) (Роберт Либерман / Robert Lieberman, ...) [2015 г., фантастика, детектив, WEB-DL, 1080p] MVO (LostFilm) + Original (Eng) + Sub (Eng)

Ответить на тему
 
Автор
Сообщение

Пост 02-Дек-2015 22:14

[Q] 

TERMOS

Легенда

-Экспансия / The Expanse
(1 сезон)
-- Производство: США
Жанр: фантастика, детектив
Год выпуска: 2015 г.
Продолжительность: 10х ~00:43:00
Перевод: Профессиональный (многоголосый, закадровый) [LostFilm]
Оригинальный аудиопоток: английский
Режиссер: Роберт Либерман / Robert Lieberman, Терри МакДонаф / Terry McDonough, ...-В ролях: Томас Джейн, Стивен Стрейт, Кэс Анвар, Доминик Типпер, Уэс Чэтэм, Шоре Агдашлу, Афина Карканис, Дрю Кэрримор, Чад Л. Коулмэн, Илайс Туфексис-Описание: Через двести лет от дня сегодняшнего некий сыщик, привыкший всё доводить до конца при любых обстоятельствах, в рамках расследования дела об исчезновении молодой женщины оказывается на борту звездолета, капитан которого решает помочь детективу в его непростом деле. Величайший заговор в истории человечества гарантируется, как и его непременное раскрытие.
- -Качество видео: WEB-DL
Контейнер: MKV
Стандарт разрешения: 1080p
Видео кодек: H.264/AVC
Аудио кодек: AC3
Видео: 1900x1080 at 23.976 fps, ~5000 kbps avg
Аудио: Russian: 48 kHz, AC3, 3/2 (L,C,R,l,r) + LFE ch, ~384.00 kbps avg |Многоголосый закадровый, Lostfilm|
Аудио #2: English: 48 kHz, AC3, 3/2 (L,C,R,l,r) + LFE ch, ~384.00 kbps avg
Cубтитры: English, English SDH
01. Дульсинея / Dulcinea
02. Великая пустота / The Big Empty
03. Не забудем «Кент» / Remember the Cant
04. Ближний бой / CQB
05. И снова к Палачу / Back to the Butcher
06. На дне / Retrofit
07. Ветряные мельницы / Windmills
08. Трофей / Salvage
09. Критическая масса / Critical Mass
10. Пробуждение Левиафана / Leviathan Wakes
Код:
General
Unique ID                   : 247204438266733661227340777543757635857 (0xB9F9D7CF21C7DD66A69A7774A8E6A111)
Complete name               : D:\Uploads\Pirat.Ca\The Expanse - Season 01 (2015)[1080p.WEB-DL]\The Expanse.S01E01.Dulcinea.1080p.WEB-DL.Rus.Eng.Subs.HDCLUB.mkv
Format                      : Matroska
Format version              : Version 4 / Version 2
File size                   : 1.83 GiB
Duration                    : 44mn 47s
Overall bit rate            : 5 846 Kbps
Movie name                  : Пространство / Экспансия / The Expanse (2015) S01E01 Дульсинея / Dulcinea
Encoded date                : UTC 2015-11-30 18:30:47
Writing application         : mkvmerge v8.6.1 ('Flying') 64bit
Writing library             : libebml v1.3.3 + libmatroska v1.4.4
Attachements                : cover.jpg
Video
ID                          : 1
Format                      : AVC
Format/Info                 : Advanced Video Codec
Format profile              : [email protected]
Format settings, CABAC      : Yes
Format settings, ReFrames   : 4 frames
Codec ID                    : V_MPEG4/ISO/AVC
Duration                    : 44mn 47s
Bit rate                    : 4 962 Kbps
Width                       : 1 920 pixels
Height                      : 1 080 pixels
Display aspect ratio        : 16:9
Frame rate mode             : Constant
Frame rate                  : 23.976 fps
Color space                 : YUV
Chroma subsampling          : 4:2:0
Bit depth                   : 8 bits
Scan type                   : Progressive
Bits/(Pixel*Frame)          : 0.100
Stream size                 : 1.55 GiB (85%)
Title                       : MPEG-4 AVC @ ~5000 Kbps - iTunes
Language                    : English
Default                     : Yes
Forced                      : No
Color primaries             : BT.709
Transfer characteristics    : BT.709
Matrix coefficients         : BT.709
Color range                 : Limited
Audio #1
ID                          : 2
Format                      : AC-3
Format/Info                 : Audio Coding 3
Mode extension              : CM (complete main)
Format settings, Endianness : Big
Codec ID                    : A_AC3
Duration                    : 44mn 47s
Bit rate mode               : Constant
Bit rate                    : 384 Kbps
Channel(s)                  : 6 channels
Channel positions           : Front: L C R, Side: L R, LFE
Sampling rate               : 48.0 KHz
Bit depth                   : 16 bits
Compression mode            : Lossy
Stream size                 : 123 MiB (7%)
Title                       : AC3 5.1 @ 384 Kbps - Многоголосый закадровый, LostFilm
Language                    : Russian
Default                     : Yes
Forced                      : No
Audio #2
ID                          : 3
Format                      : AC-3
Format/Info                 : Audio Coding 3
Mode extension              : CM (complete main)
Format settings, Endianness : Big
Codec ID                    : A_AC3
Duration                    : 44mn 47s
Bit rate mode               : Constant
Bit rate                    : 384 Kbps
Channel(s)                  : 6 channels
Channel positions           : Front: L C R, Side: L R, LFE
Sampling rate               : 48.0 KHz
Bit depth                   : 16 bits
Compression mode            : Lossy
Stream size                 : 123 MiB (7%)
Title                       : AC3 5.1 @ 384 Kbps
Language                    : English
Default                     : No
Forced                      : No
Text #1
ID                          : 4
Format                      : UTF-8
Codec ID                    : S_TEXT/UTF8
Codec ID/Info               : UTF-8 Plain Text
Title                       : SRT - Full
Language                    : English
Default                     : No
Forced                      : No
Text #2
ID                          : 5
Format                      : UTF-8
Codec ID                    : S_TEXT/UTF8
Codec ID/Info               : UTF-8 Plain Text
Title                       : SRT - Full SDH
Language                    : English
Default                     : No
Forced                      : No
Download / Скачать

Хотите скачать бесплатно? Зарегистрируйтесь на сайте (ссылка на регистрацию). Pirat.ca - самый быстрый торрент трекер в рунете!

Как скачивать  ·   Что такое торрент  ·   Рейтинг и ограничения



Последний раз редактировалось: TERMOS (2016-02-09 22:15), всего редактировалось 9 раз(а)

Пост 02-Дек-2015 23:48 (спустя 1 час 34 минуты)

Топик был перенесен из форума Зарубежные сериалы (Трюм) в форум Сериалы в эфире
Андря
 

TERMOS ®

Легенда

12063

Пост 23-Дек-2015 00:24 (спустя 20 дней)

[Q] 

Добавлена 2-я серия. Обновите торрент-файл!

_________________
[Профиль]  [ЛС] 

ggss

Лоцман

Пост 24-Дек-2015 07:48 (спустя 1 день 7 часов)

[Q] 

Как сериал? rum
[Профиль]  [ЛС] 

TERMOS ®

Легенда

12063

Пост 26-Дек-2015 20:48 (спустя 2 дня 12 часов)

[Q] 

Добавлена 3-я серия. Обновите торрент-файл!

_________________
[Профиль]  [ЛС] 

TERMOS ®

Легенда

12063

Пост 29-Дек-2015 21:44 (спустя 3 дня)

[Q] 

Добавлена 4-я серия. Обновите торрент-файл!

_________________
[Профиль]  [ЛС] 

TitOFF

Лоцман

Пост 29-Дек-2015 23:40 (спустя 1 час 56 минут)

[Q] 

Посмотрел 3 серии. Пока интересно.
[Профиль]  [ЛС] 

alkorpilot

Лоцман

Пост 08-Янв-2016 19:41 (спустя 9 дней)

[Q] 

Мне понравилось
неплохая фантастика, график выхода серий, где посмотреть?
[Профиль]  [ЛС] 

TERMOS ®

Легенда

12063

Пост 09-Янв-2016 18:00 (спустя 22 часа)

[Q] 

alkorpilot, расписание есть в ссылке на Кинопоиск.
Добавлена 5-я серия. Обновите торрент-файл!

_________________
[Профиль]  [ЛС] 

Dmitriy1881

Корсар

Пост 09-Янв-2016 22:10 (спустя 4 часа)

[Q] 

спасибо,!!!!!!!!!!!!!!!!!11
[Профиль]  [ЛС] 

TERMOS ®

Легенда

12063

Пост 16-Янв-2016 17:24 (спустя 6 дней)

[Q] 

Добавлена 6-я серия. Обновите торрент-файл!

_________________
[Профиль]  [ЛС] 

TERMOS ®

Легенда

12063

Пост 24-Янв-2016 17:44 (спустя 8 дней)

[Q] 

Добавлена 7-я серия. Обновите торрент-файл!

_________________
[Профиль]  [ЛС] 

Саня 525

Морской Волк

Пост 26-Янв-2016 20:32 (спустя 2 дня 2 часа)

[Q] 

Мне нравится! Спасибо! Раздачу поддерживаю
Всем качать!!!
[Профиль]  [ЛС] 

mb1969

Корсар

Пост 30-Янв-2016 20:22 (спустя 3 дня)

[Q] 

8-ю добавлять будем?
[Профиль]  [ЛС] 

TERMOS ®

Легенда

12063

Пост 30-Янв-2016 20:45 (спустя 23 минуты)

[Q] 

Добавлена 8-я серия. Обновите торрент-файл!

_________________
[Профиль]  [ЛС] 

TERMOS ®

Легенда

12063

Пост 06-Фев-2016 21:21 (спустя 7 дней)

[Q] 

В 8-й серии дорожка Лоста заменена на пропер. Добавлена 9-я серия. Обновите торрент-файл!

_________________
[Профиль]  [ЛС] 

TERMOS ®

Легенда

12063

Пост 09-Фев-2016 22:17 (спустя 3 дня)

[Q] 

Добавлена 10-я серия. Финал сезона! Обновите торрент-файл!

_________________
[Профиль]  [ЛС] 

Rei1

Флибустьер

Пост 10-Фев-2016 12:50 (спустя 14 часов)

[Q] 

Классный сериал)))) Рекомендую любителям детективов и фантастики !COOL! Спасибо!!!
[Профиль]  [ЛС] 

maxvel911

Морской Волк

Пост 13-Фев-2016 01:03 (спустя 2 дня 12 часов)

[Q] 

Да, согласен, посмотрел все серии с удовольствием.
[Профиль]  [ЛС] 
Показать сообщения:    
Ответить на тему

Текущее время: Сегодня 14:48

Часовой пояс: GMT + 4



Вы не можете начинать темы
Вы не можете отвечать на сообщения
Вы не можете редактировать свои сообщения
Вы не можете удалять свои сообщения
Вы не можете голосовать в опросах
Вы не можете прикреплять файлы к сообщениям
Вы не можете скачивать файлы

▼ Вниз