ML
     
  Уважаемый Гость!
Вы можете поддержать проект и зарегистрироваться у наших партнеров - онлайн-стратегия MyLands. При регистрации в игре Вы получите код, который сможете активировать после регистрации на pirat.ca и получить 1000 дублонов.

Ваш код:
193c38d0130f05c24de871678ea3ac181461757d
 
     

Легенды / Legends / Сезон 2 / Серии: 10 из 10 (Брэд Тернер / Brad Turner, ...) [2015г., боевик, триллер, драма, криминал, ... WEB-DLRip] MVO (AlexFilm) + Original (Eng) [Финал сериала]

Ответить на тему
 
Автор
Сообщение

Пост 07-Дек-2015 14:34

[Q] 

kugesan

Легенды / Legends- Русское название: Легенды
Оригинальное название: Legends
Страна: США
Год выпуска: 2015
Жанр: боевик, триллер, драма, криминал, ...-Релиз:
Перевод: Многоголосый закадровый, профессиональный
Оригинальный аудиопоток: английский-Автор перевода: Константин Кривоногов
Роли озвучивали: Евгения Тихонова, Светлана Чистохина, Владимир Курдов, Сергей Пономарёв, Михаил Суслов,
Монтаж и сведение звука: Михаил Шорыгин-Премьера (мир): 13 августа 2014, ...-Режиссер: Брэд Тернер / Brad Turner, Джэми Пэйн / Jamie Payne, Олрик Райли / Alrick Riley, ...
В главных ролях: Шон Бин (Мартин Одум), Эли Лартер (Кристал), Моррис Честнат (Тони Райс), Тина Мэджорино (Мэгги), Стив Харрис (Йейтс), Мэйсон Кук (Эйден Одам), Роб Майес (Трой), ...-Описание фильма:
Эксперт ЦРУ Мартин Одам (Шон Бин) возвращается домой после долгой работы под прикрытием в рядах действующей в США террористической организации. Он пытается восстановить отношения с родными и коллегами, тяжело переживая события своего последнего задания. Мартин еще не знает, что террористы планируют новую атаку, и ему придется продолжить свое расследование. Ситуацию осложняет неожиданно полученная Одамом информация о том, что вообще вся его жизнь — ложь, очередная созданная спецслужбами «легенда»…-Сезон: 2
Серии: 10 из 10 серий
Продолжительность: ~ 00:43:00 мин серия-Качество видео: WEB-DLRip
Формат: AVI
Видеокодек: XviD
Аудиокодек: Mp3
Видео: MPEG-4 Visual at 1403 Кбит/сек: 720 x 400 (1.800) at 23.976 fps, 0.20 Бит/Пиксели
Аудио Rus: MPEG Audio at 128 Кбит/сек, 2 канала, 48,0 КГц |AlexFilm|
Аудио Eng: MPEG Audio at 128 Кбит/сек: 2 канала, 48,0 КГц |Original|
-Легенды / Legends на Pirat.ca -
  • Легенда Дмитрия Петровича (The Legend of Dmitry Petrovich)
  • Легенда Кэйт Кроуфорд (The Legend of Kate Crawford)
  • Легенда Кёртиса Балларда (The Legend of Curtis Ballard)
  • Легенда Илианы Закаевой (The Legend Of Iiyana Zakayeva)
  • Легенда Тэрренса Грэйвза (The Legend of Terrence Graves)
  • Легенда Тамира Закаева (The Legend of Tamir Zakayev)
  • Вторая легенда Дмитрия Петровича (The Second Legend of Dmitry Petrovich)
  • Легенда Доку Закаева (The Legend of Doku Zakayev)
  • Легенда Габи Мишковой (The Legend of Gabi Miskova)
  • Легенда Алексея Волкова (The Legend of Alexei Volkov)
-
Общее
Полное имя : E:\_Сериалы\_Сериалы\Легенды\Legends - Season 2 (AlexFilm) WEB-DLRip\Legends.s02e01.WEB-DLRip.Rus.Eng.AlexFilm.avi
Формат : AVI
Формат/Информация : Audio Video Interleave
Размер файла : 517 Мбайт
Продолжительность : 43 м.
Общий поток : 1673 Кбит/сек
Название фильма : Legends 2х01 @ AlexFilm
Программа кодирования : VirtualDubMod 1.5.10.2 (build 2540/release)
Библиотека кодирования : VirtualDubMod build 2540/release
Видео
Идентификатор : 0
Формат : MPEG-4 Visual
Профиль формата : Advanced [email protected]
Параметр BVOP формата : Нет
Параметр QPel формата : Нет
Параметр GMC формата : Без точки перехода
Параметр матрицы формата : Default (H.263)
Идентификатор кодека : XVID
Идентификатор кодека/Подсказка : XviD
Продолжительность : 43 м.
Битрейт : 1403 Кбит/сек
Ширина : 720 пикселей
Высота : 400 пикселей
Соотношение сторон : 16:9
Частота кадров : 23,976 (23976/1000) кадра/сек
Цветовое пространство : YUV
Субдискретизация насыщенности : 4:2:0
Битовая глубина : 8 бит
Тип развёртки : Прогрессивная
Метод сжатия : С потерями
Бит/(Пиксели*Кадры) : 0.203
Размер потока : 433 Мбайт (84%)
Библиотека кодирования : XviD 73
Аудио #1
Идентификатор : 1
Формат : MPEG Audio
Версия формата : Version 1
Профиль формата : Layer 3
Режим : Joint stereo
Расширение режима : MS Stereo
Идентификатор кодека : 55
Идентификатор кодека/Подсказка : MP3
Продолжительность : 43 м.
Вид битрейта : Постоянный
Битрейт : 128 Кбит/сек
Каналы : 2 канала
Частота : 48,0 КГц
Метод сжатия : С потерями
Размер потока : 39,5 Мбайт (8%)
Выравнивание : Соединение по промежуткам
Продолжительность промежутка : 42 мс. (1,00 видеокадр)
Время предзагрузки промежутка : 504 мс.
Заголовок : Russian (AlexFilm)
Библиотека кодирования : LAME3.99r
Настройки программы : -m j -V 4 -q 3 -lowpass 18 -b 128
Аудио #2
Идентификатор : 2
Формат : MPEG Audio
Версия формата : Version 1
Профиль формата : Layer 3
Режим : Joint stereo
Расширение режима : MS Stereo
Идентификатор кодека : 55
Идентификатор кодека/Подсказка : MP3
Продолжительность : 43 м.
Вид битрейта : Постоянный
Битрейт : 128 Кбит/сек
Каналы : 2 канала
Частота : 48,0 КГц
Метод сжатия : С потерями
Размер потока : 39,5 Мбайт (8%)
Выравнивание : Соединение по промежуткам
Продолжительность промежутка : 42 мс. (1,00 видеокадр)
Время предзагрузки промежутка : 504 мс.
Заголовок : English
Библиотека кодирования : LAME3.90.3
-
-Скриншоты:
-
-
Раздача ведётся путём добавления новых серий; при каждом добавлении создаётся новый торрент.
Чтобы начать докачку новой серии, пользователям необходимо сделать следующее:
1. остановить скачивание,
2. удалить старый торрент у себя из клиента (старые серии удалять не надо),
3. скачать новый торрент и запустить его у себя в клиенте вместо старого, при этом указать клиенту путь в старую папку, куда и должно происходить скачивание новых серий.
Ваш клиент при этом должен произвести хеширование (проверку) старой папки (если не производит сам - помогите ему сделать это), и будет докачивать только те серии которых у вас ещё нет. Старые серии при этом не удаляются, а продолжают раздаваться!
Eсли вы уже удалили старые серии, то предотвратить повторную закачку старых серий можно, отжав галочку в соответствующих местах при запуске нового торрента. По возможности, желательно не удалять старые серии как можно дольше, чтобы релизёр не столько продолжал раздавать старые серии, а смог сконцентрироваться на новых.
Совет для тех, кто не хочет ждать перехеширования:
Создайте ещё одну папку рядом с папкой сериала (рядом, а не в ней!!!). Каждую новую серию после удачной загрузки копируйте в новую папку так чтобы ваша основная папка всегда была пуста. Когда ваш новый торрент предложит вам закачать все файлы, выберете только последнюю. Для сидирования же укажите адрес новой папки.
Как закачать отдельный файл из торрента или докачать ранее пропущенные файлы торрента!
-
1. Открыть торрент
2. Снять галки с тех файлов торрента, которые мы не хотим закачивать. Оставляем только на нужных нам файлах (файле).
3. Нажать О.К.
В клиенте utorrent
Инструкция
1) Открыть торрент

2) Снять галки с тех файлов торрента, которые мы не хотим закачивать:
* либо вручную, снимая с каждого файла галку( скрин №1)
* либо, нажав кнопку "Снять метки (Select None)", сняв сразу со всех файлов(скрин №2)
№1

№2

Оставляем только на нужных нам файлах (файле).

3)Нажать О.К
-Добавлена десятая, заключительная, серия второго сезона-
Download / Скачать

Хотите скачать бесплатно? Зарегистрируйтесь на сайте (ссылка на регистрацию). Pirat.ca - самый быстрый торрент трекер в рунете!

Как скачивать  ·   Что такое торрент  ·   Рейтинг и ограничения



Последний раз редактировалось: kugesan (2016-04-21 21:49), всего редактировалось 2 раз(а)

kugesan ®

56652

Пост 10-Янв-2016 21:53 (спустя 1 месяц 3 дня)

[Q] 

Добавлена седьмая серия второго сезона

_________________

В мире две бесконечности: вселенная и человеческая глупость - Альберт Эйнштен
«Можно вытащить человека из грязи, но нельзя вытащить грязь из человека»!
[Профиль]  [ЛС] 

Пост 18-Май-2016 12:54 (спустя 4 месяца 7 дней)

Топик был перенесен из форума Сериалы в эфире в форум Зарубежные сериалы
Андря
 
Показать сообщения:    
Ответить на тему

Текущее время: Сегодня 18:09

Часовой пояс: GMT + 4



Вы не можете начинать темы
Вы не можете отвечать на сообщения
Вы не можете редактировать свои сообщения
Вы не можете удалять свои сообщения
Вы не можете голосовать в опросах
Вы не можете прикреплять файлы к сообщениям
Вы не можете скачивать файлы

▼ Вниз