ML
     
  Уважаемый Гость!
Вы можете поддержать проект и зарегистрироваться у наших партнеров - онлайн-стратегия MyLands. При регистрации в игре Вы получите код, который сможете активировать после регистрации на pirat.ca и получить 1000 дублонов.

Ваш код:
8b752b428cf60a012c159dcae592cd1392170115
 
     

Конец детства / Childhood's End / Сезон: 1 / Серии: 3 из 3 (Ник Харран / Nick Hurran) [2015 г., фантастика, триллер, драма, ..., WEB-DLRip] MVO (NewStudio) + Original (Eng) [Финал сериала]

Ответить на тему
 
Автор
Сообщение

Пост 17-Дек-2015 22:39

[Q] 

kugesan

Конец детства / Childhood's End - Производство: США
Год выпуска: 2015
Жанр: фантастика, триллер, драма, ...-Релиз: Студия |NewStudio|
Перевод: Профессиональный (многоголосый, закадровый)
Оригинальный аудиопоток: английский-Автор перевода: Юлия Мейер
Постер: Vortex-Премьера (мир): 14 декабря 2015-Режиссер: Ник Харран / Nick Hurran
В главных ролях: Дэйзи Беттс, Чарльз Дэнс, Ози Икхайл, Джулиан МакМэхон, Колм Мини, Яэль Стоун, Майк Фогель, Эшли Цукерман, Лачлан Роланд-Кенн, Джейкоб Холт, ...-Описание фильма:
Телеадаптация в трёх частях одноимённой книги Артура Ч. Кларка, признанной революционной работой в научной фантастике. "Конец детства" расскажет о мирном вторжении на Землю таинственных Сверхправителей, прибытие которых знаменует начало десятилетий утопии по инопланетным правилам, в ущерб человеческой идентичности и культуре.-Сезон: 1
Серии: 3 из 3 серий
Продолжительность: ~ 01:21:00 мин серия-Качество видео: WEB-DLRip
Формат: AVI
Видеокодек: XviD
Аудиокодек: Mp3
Видео: MPEG-4 Visual at 1437 Кбит/сек: 720 x 400 (1.800) at 23.976 fps, 0.21 Бит/Пиксели
Аудио Rus: MPEG Audio at 128 Кбит/сек: 2 канала, 48,0 КГц |NewStudio|
Аудио Eng: MPEG Audio at 128 Кбит/сек: 2 канала, 48,0 КГц |Original|
- -
  • Сверхправители (The Overlords)
  • Обманщики (The Deceivers)
  • Дети (The Children)
-
Общее
Полное имя : E:\_Сериалы\_Сериалы\Конец детства\Childhood's.End.s01.WEBDLRip.NewStudio.TV\Childhood's.End.s01e01.WEBDLRip.NewStudio.TV.avi
Формат : AVI
Формат/Информация : Audio Video Interleave
Размер файла : 1000 Мбайт
Продолжительность : 1 ч. 21 м.
Общий поток : 1707 Кбит/сек
Программа кодирования : VirtualDubMod 1.5.10.2 (build 2540/release)
Библиотека кодирования : VirtualDubMod build 2540/release
Видео
Идентификатор : 0
Формат : MPEG-4 Visual
Профиль формата : Advanced [email protected]
Параметр BVOP формата : 2
Параметр QPel формата : Нет
Параметр GMC формата : Без точки перехода
Параметр матрицы формата : Default (MPEG)
Идентификатор кодека : XVID
Идентификатор кодека/Подсказка : XviD
Продолжительность : 1 ч. 21 м.
Битрейт : 1437 Кбит/сек
Ширина : 720 пикселей
Высота : 400 пикселей
Соотношение сторон : 16:9
Частота кадров : 23,976 (23976/1000) кадра/сек
Цветовое пространство : YUV
Субдискретизация насыщенности : 4:2:0
Битовая глубина : 8 бит
Тип развёртки : Прогрессивная
Метод сжатия : С потерями
Бит/(Пиксели*Кадры) : 0.208
Размер потока : 842 Мбайт (84%)
Библиотека кодирования : XviD 73
Аудио #1
Идентификатор : 1
Формат : MPEG Audio
Версия формата : Version 1
Профиль формата : Layer 3
Режим : Joint stereo
Расширение режима : MS Stereo
Идентификатор кодека : 55
Идентификатор кодека/Подсказка : MP3
Продолжительность : 1 ч. 21 м.
Вид битрейта : Постоянный
Битрейт : 128 Кбит/сек
Каналы : 2 канала
Частота : 48,0 КГц
Метод сжатия : С потерями
Размер потока : 75,0 Мбайт (7%)
Выравнивание : Соединение по промежуткам
Продолжительность промежутка : 42 мс. (1,00 видеокадр)
Время предзагрузки промежутка : 504 мс.
Аудио #2
Идентификатор : 2
Формат : MPEG Audio
Версия формата : Version 1
Профиль формата : Layer 3
Режим : Joint stereo
Идентификатор кодека : 55
Идентификатор кодека/Подсказка : MP3
Продолжительность : 1 ч. 21 м.
Вид битрейта : Постоянный
Битрейт : 128 Кбит/сек
Каналы : 2 канала
Частота : 48,0 КГц
Метод сжатия : С потерями
Размер потока : 75,0 Мбайт (7%)
Выравнивание : Соединение по промежуткам
Продолжительность промежутка : 42 мс. (1,00 видеокадр)
Время предзагрузки промежутка : 504 мс.
Библиотека кодирования : LAME3.99r
Настройки программы : -m j -V 4 -q 2 -lowpass 17 -b 128
-
-Скриншоты:
-
-
Раздача ведётся путём добавления новых серий; при каждом добавлении создаётся новый торрент.
Чтобы начать докачку новой серии, пользователям необходимо сделать следующее:
1. остановить скачивание,
2. удалить старый торрент у себя из клиента (старые серии удалять не надо),
3. скачать новый торрент и запустить его у себя в клиенте вместо старого, при этом указать клиенту путь в старую папку, куда и должно происходить скачивание новых серий.
Ваш клиент при этом должен произвести хеширование (проверку) старой папки (если не производит сам - помогите ему сделать это), и будет докачивать только те серии которых у вас ещё нет. Старые серии при этом не удаляются, а продолжают раздаваться!
Eсли вы уже удалили старые серии, то предотвратить повторную закачку старых серий можно, отжав галочку в соответствующих местах при запуске нового торрента. По возможности, желательно не удалять старые серии как можно дольше, чтобы релизёр не столько продолжал раздавать старые серии, а смог сконцентрироваться на новых.
Совет для тех, кто не хочет ждать перехеширования:
Создайте ещё одну папку рядом с папкой сериала (рядом, а не в ней!!!). Каждую новую серию после удачной загрузки копируйте в новую папку так чтобы ваша основная папка всегда была пуста. Когда ваш новый торрент предложит вам закачать все файлы, выберете только последнюю. Для сидирования же укажите адрес новой папки.
Как закачать отдельный файл из торрента или докачать ранее пропущенные файлы торрента!
-
1. Открыть торрент
2. Снять галки с тех файлов торрента, которые мы не хотим закачивать. Оставляем только на нужных нам файлах (файле).
3. Нажать О.К.
В клиенте utorrent
Инструкция
1) Открыть торрент

2) Снять галки с тех файлов торрента, которые мы не хотим закачивать:
* либо вручную, снимая с каждого файла галку( скрин №1)
* либо, нажав кнопку "Снять метки (Select None)", сняв сразу со всех файлов(скрин №2)
№1

№2

Оставляем только на нужных нам файлах (файле).

3)Нажать О.К
-Добавлена третья, заключительная, серия первого сезона
Download / Скачать

Хотите скачать бесплатно? Зарегистрируйтесь на сайте (ссылка на регистрацию). Pirat.ca - самый быстрый торрент трекер в рунете!

Как скачивать  ·   Что такое торрент  ·   Рейтинг и ограничения



Последний раз редактировалось: kugesan (2015-12-20 13:06), всего редактировалось 3 раз(а)

Inoj74

Лоцман

Пост 18-Дек-2015 11:10 (спустя 12 часов)

[Q] 

Эммм..., а что означает "Добавлена десятая серия третьего сезона"?
[Профиль]  [ЛС] 

kugesan ®

56634

Пост 19-Дек-2015 12:43 (спустя 1 день 1 час)

[Q] 

Добавлена вторая серия первого сезона

_________________

В мире две бесконечности: вселенная и человеческая глупость - Альберт Эйнштен
«Можно вытащить человека из грязи, но нельзя вытащить грязь из человека»!
[Профиль]  [ЛС] 

clavik21

Мичман

674

Пост 19-Дек-2015 19:19 (спустя 6 часов)

[Q] 

заинтересовало надо будет посмотреть спасибо Всем качать!!! Раздающему респект!

_________________
[Профиль]  [ЛС] 

Ruslan2800

Штурман

Пост 19-Дек-2015 22:35 (спустя 3 часа)

[Q] 

Спасибо! А когда ожидается третья серия?
[Профиль]  [ЛС] 

kugesan ®

56634

Пост 20-Дек-2015 13:07 (спустя 14 часов)

[Q] 

Добавлена третья, заключительная, серия первого сезона

_________________

В мире две бесконечности: вселенная и человеческая глупость - Альберт Эйнштен
«Можно вытащить человека из грязи, но нельзя вытащить грязь из человека»!
[Профиль]  [ЛС] 

Пост 20-Дек-2015 20:48 (спустя 7 часов)

Топик был перенесен из форума Сериалы в эфире в форум Зарубежные сериалы
erchine
 

robinsar

Корсар

Пост 20-Дек-2015 21:16 (спустя 8 часов)

[Q] 

Война - плохо, мир в руках дьявола хорошо, но это временно. За людей могут решить проблему только люди.
[Профиль]  [ЛС] 

blackmag

Шкипер

Пост 21-Дек-2015 03:59 (спустя 6 часов)

[Q] 

c дьяволом неожиданно
[Профиль]  [ЛС] 
Показать сообщения:    
Ответить на тему

Текущее время: Сегодня 06:18

Часовой пояс: GMT + 4



Вы не можете начинать темы
Вы не можете отвечать на сообщения
Вы не можете редактировать свои сообщения
Вы не можете удалять свои сообщения
Вы не можете голосовать в опросах
Вы не можете прикреплять файлы к сообщениям
Вы не можете скачивать файлы

▼ Вниз