ML
     
  Уважаемый Гость!
Вы можете поддержать проект и зарегистрироваться у наших партнеров - онлайн-стратегия MyLands. При регистрации в игре Вы получите код, который сможете активировать после регистрации на pirat.ca и получить 1000 дублонов.

Ваш код:
5f4e94775bc0501caff7b254e79328d304c817d9
 
     

Человек в высоком замке / The Man in the High Castle / Сезон: 1 / Серии: 10 из 10 (Дэниэл Персивал / Daniel Percival) [2015 г., фантастика, триллер, драма, ..., WEB-DLRip] MVO (AlexFilm) + Original (Eng) [финал сезона]

Ответить на тему
 
Автор
Сообщение

Пост 17-Дек-2015 22:56

[Q] 

kugesan

-Человек в высоком замке
The Man in the High Castle
-- Производство: США
Жанр: фантастика, триллер, драма, ...
Год выпуска: 2015 г.-Мировая премьера: 13 января 2015, ...-Озвучка: Студия
Перевод: Многоголосый закадровый, профессиональный
Оригинальный аудиопоток: английский-Автор перевода: Константин Кривоногов
Роли озвучивали: Таисия Тришина, Наталья Ланц, Петр Гланц, Михаил Суслов, Роман Сопко, Валерий Смекалов, Михаил Шорыгин
Монтаж и сведение звука: Михаил Шорыгин
Постер: Андрей Шапал-Режиссер: Дэниэл Персивал / Daniel Percival, Брэд Андерсон / Brad Anderson, Карин Кусама / Karyn Kusama, ...-В ролях: Алекса Давалос, Руперт Эванс, Люк Клеинтенк, DJ Куаллс, Джоэль де ла Фуэнте, Руфус Сьюэлл, Кэри-Хироюки Тагава, Карстен Норгаард ...-Описание:
Германия и Япония выиграли Вторую мировую. Америка разделена пополам между победителями, но, разумеется, спустя много лет после поражения (действие разворачивается в 1962-м) сознательные американцы организуют глубоко засекреченное подполье. Занимаются повстанцы в основном распространением странной кинохроники, на которой показана победа в войне союзнических войск. Именно с этими пленками в руках в нейтральную зону между двумя Америками отправляются Джо и Джулс — юноша и девушка, пробующие свои силы в борьбе с режимом.-Сезон: 1
Серии: 10 из 10 серий
Продолжительность: ~ 01:00:00 мин серия-Качество видео: WEB-DLRip
Контейнер: AVI
Видео кодек: XviD
Аудио кодек: MP3
Видео: MPEG-4 Visual at 1403 Кбит/сек: 720 x 400 (1.800) at 23.976 fps: 0.20 Бит/Пиксели
Аудио Rus: MPEG Audio at 128 Кбит/сек, 2 канала, 48,0 КГц |AlexFilm|
Аудио Eng: MPEG Audio at 128 Кбит/сек, 2 канала, 48,0 КГц |Original|
Cубтитры: отсутствуют
- -
  • Pilot / Пилот
  • Sunrise / Восход
  • The Illustrated Woman / Девушка с рисунка
  • Revelations / Откровения
  • The New Normal / Новая норма
  • Three Monkeys / Три обезьяны
  • Truth / Правда
  • End of the World / Конец мира
  • Kindness / Доброта
  • A Way Out / Выход
Общее
Полное имя : E:\_Сериалы\_Сериалы\AlexFilm\The Man in the High Castle - Season 1 (AlexFilm) WEBRip\The.Man.in.the.High.Castle.s01e01.WEBRip.Rus.Eng.AlexFilm.avi
Формат : AVI
Формат/Информация : Audio Video Interleave
Размер файла : 721 Мбайт
Продолжительность : 1 ч. 0 м.
Общий поток : 1673 Кбит/сек
Название фильма : The Man in the High Castle 1x01 @ AlexFilm
Программа кодирования : VirtualDubMod 1.5.10.2 (build 2540/release)
Библиотека кодирования : VirtualDubMod build 2540/release
Видео
Идентификатор : 0
Формат : MPEG-4 Visual
Профиль формата : Advanced [email protected]
Параметр BVOP формата : Нет
Параметр QPel формата : Нет
Параметр GMC формата : Без точки перехода
Параметр матрицы формата : Default (H.263)
Идентификатор кодека : XVID
Идентификатор кодека/Подсказка : XviD
Продолжительность : 1 ч. 0 м.
Битрейт : 1403 Кбит/сек
Ширина : 720 пикселей
Высота : 400 пикселей
Соотношение сторон : 16:9
Частота кадров : 23,976 (23976/1000) кадра/сек
Цветовое пространство : YUV
Субдискретизация насыщенности : 4:2:0
Битовая глубина : 8 бит
Тип развёртки : Прогрессивная
Метод сжатия : С потерями
Бит/(Пиксели*Кадры) : 0.203
Размер потока : 604 Мбайт (84%)
Библиотека кодирования : XviD 73
Аудио #1
Идентификатор : 1
Формат : MPEG Audio
Версия формата : Version 1
Профиль формата : Layer 3
Режим : Joint stereo
Расширение режима : MS Stereo
Идентификатор кодека : 55
Идентификатор кодека/Подсказка : MP3
Продолжительность : 1 ч. 0 м.
Вид битрейта : Постоянный
Битрейт : 128 Кбит/сек
Каналы : 2 канала
Частота : 48,0 КГц
Метод сжатия : С потерями
Размер потока : 55,1 Мбайт (8%)
Выравнивание : Соединение по промежуткам
Продолжительность промежутка : 42 мс. (1,00 видеокадр)
Время предзагрузки промежутка : 504 мс.
Заголовок : Russian (AlexFilm)
Библиотека кодирования : LAME3.99r
Настройки программы : -m j -V 4 -q 3 -lowpass 18 -b 128
Аудио #2
Идентификатор : 2
Формат : MPEG Audio
Версия формата : Version 1
Профиль формата : Layer 3
Режим : Joint stereo
Расширение режима : MS Stereo
Идентификатор кодека : 55
Идентификатор кодека/Подсказка : MP3
Продолжительность : 1 ч. 0 м.
Вид битрейта : Постоянный
Битрейт : 128 Кбит/сек
Каналы : 2 канала
Частота : 48,0 КГц
Метод сжатия : С потерями
Размер потока : 55,1 Мбайт (8%)
Выравнивание : Соединение по промежуткам
Продолжительность промежутка : 42 мс. (1,00 видеокадр)
Время предзагрузки промежутка : 504 мс.
Заголовок : English
Библиотека кодирования : LAME3.90.3
-
-Скриншоты:
-
Раздача ведётся путём добавления новых серий; при каждом добавлении создаётся новый торрент.
Чтобы начать докачку новой серии, пользователям необходимо сделать следующее:
1. остановить скачивание,
2. удалить старый торрент у себя из клиента (старые серии удалять не надо),
3. скачать новый торрент и запустить его у себя в клиенте вместо старого, при этом указать клиенту путь в старую папку, куда и должно происходить скачивание новых серий.
Ваш клиент при этом должен произвести хеширование (проверку) старой папки (если не производит сам - помогите ему сделать это), и будет докачивать только те серии которых у вас ещё нет. Старые серии при этом не удаляются, а продолжают раздаваться!
Eсли вы уже удалили старые серии, то предотвратить повторную закачку старых серий можно, отжав галочку в соответствующих местах при запуске нового торрента. По возможности, желательно не удалять старые серии как можно дольше, чтобы релизёр не столько продолжал раздавать старые серии, а смог сконцентрироваться на новых.
Совет для тех, кто не хочет ждать перехеширования:
Создайте ещё одну папку рядом с папкой сериала (рядом, а не в ней!!!). Каждую новую серию после удачной загрузки копируйте в новую папку так чтобы ваша основная папка всегда была пуста. Когда ваш новый торрент предложит вам закачать все файлы, выберете только последнюю. Для сидирования же укажите адрес новой папки.
Как закачать отдельный файл из торрента или докачать ранее пропущенные файлы торрента!
-
1. Открыть торрент
2. Снять галки с тех файлов торрента, которые мы не хотим закачивать. Оставляем только на нужных нам файлах (файле).
3. Нажать О.К.
В клиенте utorrent
Инструкция
1) Открыть торрент

2) Снять галки с тех файлов торрента, которые мы не хотим закачивать:
* либо вручную, снимая с каждого файла галку( скрин №1)
* либо, нажав кнопку "Снять метки (Select None)", сняв сразу со всех файлов(скрин №2)
№1

№2

Оставляем только на нужных нам файлах (файле).

3)Нажать О.К
-Добавлена десятая, заключительная, серия первого сезона
Download / Скачать

Хотите скачать бесплатно? Зарегистрируйтесь на сайте (ссылка на регистрацию). Pirat.ca - самый быстрый торрент трекер в рунете!

Как скачивать  ·   Что такое торрент  ·   Рейтинг и ограничения

ZektraPlay

Шкипер

Пост 19-Дек-2015 01:03 (спустя 1 день 2 часа)

[Q] 

как сериал? Смотрел кто?
[Профиль]  [ЛС] 

Korum_krot

Юнга

Пост 20-Дек-2015 21:51 (спустя 1 день 20 часов)

[Q] 

смотрел) на любителя альтернативной истории не более того)
[Профиль]  [ЛС] 

blackmag

Шкипер

Пост 06-Янв-2016 23:56 (спустя 17 дней)

[Q] 

снято очень эффектно. без соплей, но и без непримеримой жестокости
[Профиль]  [ЛС] 
Показать сообщения:    
Ответить на тему

Текущее время: Сегодня 15:33

Часовой пояс: GMT + 4



Вы не можете начинать темы
Вы не можете отвечать на сообщения
Вы не можете редактировать свои сообщения
Вы не можете удалять свои сообщения
Вы не можете голосовать в опросах
Вы не можете прикреплять файлы к сообщениям
Вы не можете скачивать файлы

▼ Вниз