ML
     
  Уважаемый Гость!
Вы можете поддержать проект и зарегистрироваться у наших партнеров - онлайн-стратегия MyLands. При регистрации в игре Вы получите код, который сможете активировать после регистрации на pirat.ca и получить 1000 дублонов.

Ваш код:
ba41f7961e0b4717aed6a401d955262223b8f6c4
 
     

Расследование Мёрдока / The Murdoch Mysteries / Сезон 1 (Майкл ДеКарло / Michael DeCarlo, ...) [2008 г., драма, криминал, детектив, WebRip] MVO (ТВЦ) + Original (Eng)

Ответить на тему
 
Автор
Сообщение

Пост 17-Дек-2015 23:59

[Q] 

Ikoka_Divo

-
Расследования Мёрдока--
Производство: Канада, Великобритания
Жанр: драма, криминал, детектив
Год выпуска: 2008 г (1 сезон).
Продолжительность: ~00:45:00 серия
Режиссер: Майкл ДеКарло / Michael DeCarlo-В ролях:
Янник Биссон, Хелен Джой, Томас Крэйг, Джонни Харрис, Питер Стеббингс,
Дмитрий Чеповецкий и др.-Описание:
В конце 19 века на улицах города Торонто начали происходить странные убийства. Для их раскрытия детектив Уильям Мёрдок применяет новую науку-криминалистику. Его союзником становится судебный медик Джейн Огден. Ни юный возраст, ни хорошее воспитание, ни пышные юбки не мешают ей вскрывать трупы и проводить экспертизы. В основе повествования лежат романы Maureen Jennings. Дословно название сериала переводится как «Загадки Мёрдока». В некоторых частях Мёрдоком используются прототипы современных устройств в виде прибора ночного видения, детектора лжи, прочих сверхпрогрессивных для того времени технологий и изобретений. Иногда он общается с преступником при помощи телеграфа, что напоминает разговор по icq или skype. В сериале представлено множество реально существовавших исторических персонажей, в числе которых Никола Тесла, Артур Конан Дойль, Гарри Гуддини, Герберт Уэллс, Александр Белл. Они дают детективу Мёрдоку консультации и оказывают помощь в расследовании преступлений, а иногда и оказываются подозреваемыми. Сериал привязан к реалиям жизни того времени, он отлично передаёт атмосферу Канады той эпохи - британской колонии - а также политическую и экономическую обстановку в стране, и иногда в мире.
-
Качество видео: WebRip
Контейнер: avi
Видео кодек: XviD
Аудио кодек: mp3
Видео: 640x360; 903 kbps; 29.970 fps; 0.13 Bits/Pixel
Аудио Rus: mp3, 128 kbps; 2 канала; 48.0 КГ (ТВЦ, многоголосый)
Аудио Eng: mp3, 128 kbps; 2 канала; 48.0 КГ (Original)
01. Власть / Power
02. Стеклянный потолок / Glass Ceiling
03. Сокрушительный удар / The Knockdown
04. Элементарно, мой дорогой Мердок / Elementary, My Dear Murdoch
05. Пока смерть не разлучит нас / Til Death Do Us Part
06. Выпустите собак / Let Loose the Dogs
07. Дублер / Body Double
08. Тихие воды / Still Waters
09. Говорящий живот / Belly Speaker
10. Детские игрушки / Child's Play
11. Плохая медицина / Bad Medicine
12. Принц и мятежник / The Prince and the Rebel
13. Раздражающая красная планета / The Annoying Red Planet
General
Complete name : D:\Расследование Мердока (1 сезон) 2008\Murdoch.Mysteries.s01e01.DVDRip.Rus.Eng.Power.avi
Format : AVI
Format/Info : Audio Video Interleave
File size : 387 MiB
Duration : 45mn 56s
Overall bit rate : 1 176 Kbps
Writing application : VirtualDubModRus 1.5.10.2 (build 2542/release)
Writing library : VirtualDubMod build 2542/release
Video #0
ID : 0
Format : MPEG-4 Visual
Format profile : [email protected]
Format settings, BVOP : 2
Format settings, QPel : No
Format settings, GMC : No warppoints
Format settings, Matrix : Default (H.263)
Muxing mode : Packed bitstream
Codec ID : XVID
Codec ID/Hint : XviD
Duration : 45mn 56s
Bit rate : 903 Kbps
Width : 640 pixels
Height : 360 pixels
Display aspect ratio : 16:9
Frame rate : 29.970 fps
Color space : YUV
Chroma subsampling : 4:2:0
Bit depth : 8 bits
Scan type : Progressive
Compression mode : Lossy
Bits/(Pixel*Frame) : 0.131
Stream size : 297 MiB (77%)
Writing library : XviD 1.0.1 (UTC 2004-06-05)
Audio #1
ID : 1
Format : MPEG Audio
Format version : Version 1
Format profile : Layer 3
Mode : Joint stereo
Mode extension : MS Stereo
Codec ID : 55
Codec ID/Hint : MP3
Duration : 45mn 56s
Bit rate mode : Constant
Bit rate : 128 Kbps
Channel count : 2 channels
Sampling rate : 48.0 KHz
Compression mode : Lossy
Stream size : 42.1 MiB (11%)
Alignment : Aligned on interleaves
Interleave, duration : 33 ms (1.00 video frame)
Interleave, preload duration : 504 ms
Writing library : LAME3.96
Audio #2
ID : 2
Format : MPEG Audio
Format version : Version 1
Format profile : Layer 3
Mode : Joint stereo
Mode extension : MS Stereo
Codec ID : 55
Codec ID/Hint : MP3
Duration : 45mn 56s
Bit rate mode : Constant
Bit rate : 128 Kbps
Channel count : 2 channels
Sampling rate : 48.0 KHz
Compression mode : Lossy
Stream size : 42.1 MiB (11%)
Alignment : Aligned on interleaves
Interleave, duration : 33 ms (1.00 video frame)
Interleave, preload duration : 504 ms
      Раздача ведётся только с 1.00 до 7.00 по Москве.
Download / Скачать

Хотите скачать бесплатно? Зарегистрируйтесь на сайте (ссылка на регистрацию). Pirat.ca - самый быстрый торрент трекер в рунете!

Как скачивать  ·   Что такое торрент  ·   Рейтинг и ограничения

Пост 18-Дек-2015 02:54 (спустя 2 часа 55 минут)

Топик был перенесен из форума Зарубежные сериалы (Трюм) в форум Зарубежные сериалы
Андря
 

ник ример

Морской Волк

Пост 18-Дек-2015 22:54 (спустя 22 часа)

[Q] 

как скачаю помогу с раздачей
[Профиль]  [ЛС] 

ник ример

Морской Волк

Пост 19-Дек-2015 03:16 (спустя 4 часа)

[Q] 

И где раздающий? уже 2й день жду раздачи
Раздавать будем или как? Эй, вернитесь на раздачу...
[Профиль]  [ЛС] 

Ikoka_Divo ®

452

Пост 19-Дек-2015 05:33 (спустя 2 часа 16 минут)

[Q] 

ник ример, спасибо за желание помочь. не могла раньше включить машину сегодня. примите глубочайшие извинения за нарушение собственного слова.

_________________

[Профиль]  [ЛС] 

ник ример

Морской Волк

Пост 20-Дек-2015 10:25 (спустя 1 день 4 часа)

[Q] 

Интересный сериал косящий под 19 век, хотя и со своими огрехами.
Мне приятно было посмотреть . хочу глянуть 2й сезон Автору респект!!! Лови бочку
Добавлено спустя 2 минуты 17 секунд:
Ikoka_Divo, Сможешь выложить остальные сезоны ?
я помогу с раздачей
[Профиль]  [ЛС] 

Ikoka_Divo ®

452

Пост 20-Дек-2015 14:12 (спустя 3 часа)

[Q] 

ник ример, да, я так и собираюсь сделать. У меня есть по 7 сезон полностью, восьмой почти. Ещё встречала в одном месте анонсы 9 сезона, попробую и его скачать, если он действительно есть.
Спасибо большое за помощь и терпение!
Я сама с удовольствием смотрю этот сериал, потому и хочется поделиться.
Добавлено спустя 38 секунд:
ник ример, постараюсь сегодня к часу ночи сделать раздачу со вторым сезоном.

_________________

[Профиль]  [ЛС] 

ник ример

Морской Волк

Пост 20-Дек-2015 19:09 (спустя 4 часа)

[Q] 

Ikoka_Divo, буду ждать ! Если у тебя сегодня не получится не страшно потерплю до завтрашнего вечера Раздающему респект!
[Профиль]  [ЛС] 

Ikoka_Divo ®

452

Пост 20-Дек-2015 20:19 (спустя 1 час 10 минут)

[Q] 

ник ример, уже есть релиз. ночью включу торрент.
Добавлено спустя 1 минута 24 секунды:
ник ример, Расследование Мёрдока / The Murdoch Mysteries / Сезон 2 (Майкл ДеКарло / Michael DeCarlo, ...) [2008 г., драма, криминал, детектив, WebRip] MVO (ТВЦ) + Original (Eng)

_________________

[Профиль]  [ЛС] 
Показать сообщения:    
Ответить на тему

Текущее время: Сегодня 14:48

Часовой пояс: GMT + 4



Вы не можете начинать темы
Вы не можете отвечать на сообщения
Вы не можете редактировать свои сообщения
Вы не можете удалять свои сообщения
Вы не можете голосовать в опросах
Вы не можете прикреплять файлы к сообщениям
Вы не можете скачивать файлы

▼ Вниз