ML
     
  Уважаемый Гость!
Вы можете поддержать проект и зарегистрироваться у наших партнеров - онлайн-стратегия MyLands. При регистрации в игре Вы получите код, который сможете активировать после регистрации на pirat.ca и получить 1000 дублонов.

Ваш код:
11f49771fdf057c9d51610e4a0925c3b46ddb655
 
     

Расследование Мёрдока / The Murdoch Mysteries / Сезон 2 / 13 серий (Дон МакБрити / Don McBrearty, ...) [2009 г., драма, криминал, детектив, WebRip] MVO (ТВЦ) + Original (Eng)

Ответить на тему
 
Автор
Сообщение

Пост 20-Дек-2015 19:28

[Q] 

Ikoka_Divo

-
Расследования Мёрдока.--
Производство: Канада, Великобритания
Жанр: драма, криминал, детектив
Год выпуска: 2009 г (2 сезон).
Продолжительность: ~00:45:00 серия
Режиссер: Дон МакБрити / Don McBrearty, Элинор Линдо / Eleanor Lindo, Келли Макин / Kelly Makin-В ролях:
Янник Биссон, Хелен Джой, Томас Крэйг, Джонни Харрис, Питер Стеббингс,
Дмитрий Чеповецкий и др.-Описание:
Второй сезон продолжает повествование о расследованиях и приключениях уникального детектива и его команды.
В конце 19 века на улицах города Торонто начали происходить странные убийства. Для их раскрытия детектив Уильям Мёрдок применяет новую науку-криминалистику. Его союзником становится судебный медик Джейн Огден. Ни юный возраст, ни хорошее воспитание, ни пышные юбки не мешают ей вскрывать трупы и проводить экспертизы. В основе повествования лежат романы Maureen Jennings. Дословно название сериала переводится как «Загадки Мёрдока». В некоторых частях Мёрдоком используются прототипы современных устройств в виде прибора ночного видения, детектора лжи, прочих сверхпрогрессивных для того времени технологий и изобретений. Иногда он общается с преступником при помощи телеграфа, что напоминает разговор по icq или skype. В сериале представлено множество реально существовавших исторических персонажей, в числе которых Никола Тесла, Артур Конан Дойль, Гарри Гуддини, Герберт Уэллс, Александр Белл. Они дают детективу Мёрдоку консультации и оказывают помощь в расследовании преступлений, а иногда и оказываются подозреваемыми. Сериал привязан к реалиям жизни того времени, он отлично передаёт атмосферу Канады той эпохи - британской колонии - а также политическую и экономическую обстановку в стране, и иногда в мире.
-
Качество видео: WebRip
Контейнер: avi
Видео кодек: XviD
Аудио кодек: mp3
Видео: 624x352; 903 kbps; 25.000 fps; 0.17 Bits/Pixel
Аудио Rus: mp3, 128 kbps; 2 канала; 48.0 КГ (ТВЦ, многоголосый)
Аудио Eng: mp3, 121 kbps; 2 канала; 48.0 КГ (Original)
01. Спокойный запад / Mild Mild West
02. Змеи и лестницы / Snakes and Ladders
03. Динозавровая лихорадка / Dinosaur Fever
04. Расследование Гудини / Houdini Whodunit
05. Зеленая фея / The Green Muse
06. Все оттенки серого / Shades of Grey
07. Убийство в студенческом городке / Big Murder on Campus
08. Я, Мердок / I, Murdoch
09. Выздоровление / Convalescence
10. Мердок онлайн / Murdoch.com
11. Давайте спросим / Let Us Ask the Maiden
12. Вервольфы / Werewolves
13. Все, что ты можешь сделать / Anything You Can Do
General
Complete name : D:\Расследования Мердока (The Murdoch Mysteries) 2008-2010\Расследование Мердока (2 сезон) 2009\Murdoch.Mysteries.s02e01.DVDRip.Rus.Eng.Mild,.Mild.West.avi
Format : AVI
Format/Info : Audio Video Interleave
File size : 392 MiB
Duration : 45mn 40s
Overall bit rate mode : Variable
Overall bit rate : 1 199 Kbps
Writing application : VirtualDubModRus 1.5.10.2 (build 2542/release)
Writing library : VirtualDubMod build 2542/release
Video #0
ID : 0
Format : MPEG-4 Visual
Format profile : Advanced [email protected]
Format settings, BVOP : 2
Format settings, QPel : No
Format settings, GMC : No warppoints
Format settings, Matrix : Default (H.263)
Muxing mode : Packed bitstream
Codec ID : XVID
Codec ID/Hint : XviD
Duration : 45mn 40s
Bit rate : 932 Kbps
Width : 624 pixels
Height : 352 pixels
Display aspect ratio : 16:9
Frame rate : 25.000 fps
Color space : YUV
Chroma subsampling : 4:2:0
Bit depth : 8 bits
Scan type : Progressive
Compression mode : Lossy
Bits/(Pixel*Frame) : 0.170
Stream size : 305 MiB (78%)
Writing library : XviD 1.2.1 (UTC 2008-12-04)
Audio #1
ID : 1
Format : MPEG Audio
Format version : Version 1
Format profile : Layer 3
Mode : Joint stereo
Mode extension : MS Stereo
Codec ID : 55
Codec ID/Hint : MP3
Duration : 45mn 40s
Bit rate mode : Constant
Bit rate : 128 Kbps
Channel count : 2 channels
Sampling rate : 48.0 KHz
Compression mode : Lossy
Stream size : 41.8 MiB (11%)
Alignment : Aligned on interleaves
Interleave, duration : 40 ms (1.00 video frame)
Interleave, preload duration : 504 ms
Audio #2
ID : 2
Format : MPEG Audio
Format version : Version 1
Format profile : Layer 3
Mode : Joint stereo
Mode extension : MS Stereo
Codec ID : 55
Codec ID/Hint : MP3
Duration : 45mn 40s
Bit rate mode : Variable
Bit rate : 121 Kbps
Nominal bit rate : 128 Kbps
Channel count : 2 channels
Sampling rate : 48.0 KHz
Compression mode : Lossy
Stream size : 39.6 MiB (10%)
Alignment : Aligned on interleaves
Interleave, duration : 24 ms (0.60 video frame)
Interleave, preload duration : 193 ms
Writing library : LAME3.98r
Encoding settings : -m j -V 4 -q 2 -lowpass 17 --abr 128
                             
Раздача ведётся только с 1.00 до 7.00 по Москве.
Download / Скачать

Хотите скачать бесплатно? Зарегистрируйтесь на сайте (ссылка на регистрацию). Pirat.ca - самый быстрый торрент трекер в рунете!

Как скачивать  ·   Что такое торрент  ·   Рейтинг и ограничения



Последний раз редактировалось: Ikoka_Divo (2015-12-20 20:20), всего редактировалось 1 раз

Ikoka_Divo ®

452

Пост 20-Дек-2015 19:44 (спустя 15 минут)

[Q] 

Всё, меня видно, как сидера, раздачу включу ночью.

_________________

[Профиль]  [ЛС] 

Пост 20-Дек-2015 22:39 (спустя 2 часа 55 минут)

Топик был перенесен из форума Зарубежные сериалы (Трюм) в форум Зарубежные сериалы
Андря
 

ник ример

Морской Волк

Пост 20-Дек-2015 22:58 (спустя 3 часа)

[Q] 

ООО уряяяя Спасибо!!!
[Профиль]  [ЛС] 

Ikoka_Divo ®

452

Пост 20-Дек-2015 23:13 (спустя 14 минут)

[Q] 

ник ример, всегда пожалуйста. лишь бы провайдер не вмешивался только.

_________________

[Профиль]  [ЛС] 

Ikoka_Divo ®

452

Пост 24-Дек-2015 15:45 (спустя 3 дня)

[Q] 

ник ример, разочаровались в сериале? не хотите больше раздавать?

_________________

[Профиль]  [ЛС] 

KoNiaL_KCC

Гроза морей

Пост 26-Дек-2015 22:17 (спустя 2 дня 6 часов)

[Q] 

если нужна помощь в раздаче пишите в лс, только у меня график раздачи корявый cx , место на диске есть.
[Профиль]  [ЛС] 

Ikoka_Divo ®

452

Пост 26-Дек-2015 23:13 (спустя 56 минут)

[Q] 

KoNiaL_KCC, хорошо. Спасибо, очень нужна. Я завтра выложу третй сезон. Пришлю тогда ссылочку.

_________________

[Профиль]  [ЛС] 

KoNiaL_KCC

Гроза морей

Пост 27-Дек-2015 23:30 (спустя 1 день)

[Q] 

ок. завтра займусь Качают ВСЕ!!!
Добавлено спустя 22 минуты 56 секунд:
и ссылочку на 1 сезон тоже pls
[Профиль]  [ЛС] 

ник ример

Морской Волк

Пост 09-Янв-2016 15:05 (спустя 12 дней)

[Q] 

Ikoka_Divo, Про меня не забывайте я тоже с раздачей помогу
Добавлено спустя 1 минута 1 секунда:
вот сылка на 1й сезон Расследование Мёрдока / The Murdoch Mysteries / Сезон 1 (Майкл ДеКарло / Michael DeCarlo, ...) [2008 г., драма, криминал, детектив, WebRip] MVO (ТВЦ) + Original (Eng)
[Профиль]  [ЛС] 

ник ример

Морской Волк

Пост 10-Янв-2016 03:33 (спустя 12 часов)

[Q] 

Ikoka_Divo, Было бы неплохо 3й сезон глянуть...а то уже 10е число.... Раздающему респект!
[Профиль]  [ЛС] 

Ikoka_Divo ®

452

Пост 10-Янв-2016 03:38 (спустя 5 минут)

[Q] 

ник ример, постараюсь. времени совсем нет. в праздники все дома, и по ночам все активно скачивают всё подряд. постараюсь выложить. у меня же главная проблема с раздаванием.
и огромное спасибо за помощь!

_________________

[Профиль]  [ЛС] 

KoNiaL_KCC

Гроза морей

Пост 09-Фев-2016 23:04 (спустя 30 дней)

[Q] 

Ikoka_Divo, доброй ночи. может сериал просто не замечают раз мало скачивают, сериал интересен, по причине что низко лежит, может есть смысл его в раздачи кинуть (и объединить сезоны) ИМХО. идея есть, а правов маловато (((
Добавлено спустя 1 минута 51 секунда:
к сожалению просмотрел уже 6 сезонов, но выкладывать не научили ((
[Профиль]  [ЛС] 
Показать сообщения:    
Ответить на тему

Текущее время: Сегодня 03:11

Часовой пояс: GMT + 4



Вы не можете начинать темы
Вы не можете отвечать на сообщения
Вы не можете редактировать свои сообщения
Вы не можете удалять свои сообщения
Вы не можете голосовать в опросах
Вы не можете прикреплять файлы к сообщениям
Вы не можете скачивать файлы

▼ Вниз