ML
     
  Уважаемый Гость!
Вы можете поддержать проект и зарегистрироваться у наших партнеров - онлайн-стратегия MyLands. При регистрации в игре Вы получите код, который сможете активировать после регистрации на pirat.ca и получить 1000 дублонов.

Ваш код:
cc3be08b7507661c03e0a2f582d0da3a659ea55a
 
     

Однажды в сказке / Once Upon a Time / Сезон: 1 / Серии: 1-22 (22) (Дэвид Баррет / David Barrett, ...) [2011 г., фэнтези, мелодрама, приключения, BDRip, 720p] Dub (Невафильм) + DVO (Кубик в Кубе) + Original (Eng) + Sub (Eng)

Ответить на тему
 
Автор
Сообщение

Пост 23-Дек-2015 18:37

[Q] 

TERMOS

Легенда

-Однажды в сказке / Once Upon a Time
«Добро пожаловать в Сторибрук»
(1 сезон)
-- Производство: США
Жанр: фэнтези, мелодрама, приключения
Год выпуска: 2011 г.
Продолжительность: 22x ~00:45:00
Перевод: Профессиональный (полное дублирование) [Невафильм]
Перевод 2: Профессиональный (двухголосый, закадровый) [Кубик в Кубе]
Оригинальный аудиопоток: английский
Режиссер: Дэвид Баррет / David Barrett, Грег Биман / Greg Beeman, Пол А. Эдвардс / Paul A. Edwards, ...-В ролях: Джиннифер Гудвин, Дженнифер Моррисон, Лана Паррилла, Джаред Гилмор, Рафаэль Сбардж, Джеми Дорнан, Роберт Карлайл, Джошуа Даллас, Меган Ори, Джанкарло Эспозито, ...-Описание: Сюжет фэнтези разворачивается в двух мирах - современном и сказочном. Жизнь 28-летней Эммы Свон меняется, когда ее 10-летний сын Генри, от которого она отказалась много лет назад, находит Эмму и объявляет, что она является дочерью Прекрасного Принца и Белоснежки. Само собой разумеется, у мальчишки нет никаких сомнений, что параллельно нашему существует альтернативный сказочный мир - город Сторибрук, в котором в итоге оказывается Эмма. Постепенно героиня привязывается к необычному мальчику и странному городу, жители которого «забыли», кем они были в прошлом. А все из-за проклятия Злой Королевы (по совместительству приемной матери Генри), с помощью которого колдунья остановила время в сказочной стране. Однако стоит протянуть руку - и сказка оживет. Эпическая битва за будущее двух миров начинается, но, чтобы одержать победу, Эмме придется принять свою судьбу...
- -Качество видео: BDRip
Источник: US Blu-ray AVC DTS-HD MA 5.1-DON
Контейнер: MKV
Стандарт разрешения: 720p
Видео кодек: H.264/AVC
Аудио кодек: AC3
Видео: 1280x720 at 23.976 fps, ~5300 kbps avg
Аудио: Russian: 48 kHz, AC3, 3/2 (L,R) ch, ~192 kbps avg |Дубляж, Невафильм|
Аудио #2: Russian: 48 kHz, AC3, 3/2 (L,C,R,l,r) + LFE ch, ~640 kbps avg |Двухголосый закадровый, Кубик в Кубе|
Аудио #3: English: 48 kHz, AC3, 3/2 (L,C,R,l,r) + LFE ch, ~640 kbps avg
Cубтитры: English
01: Pilot / Пилот
02: The Thing You Love Most / Самое дорогое
03: Snow Falls / Кое-кто влюбился
04: The Price of Gold / Долг платежом красен
05: That Still Small Voice / Внутренний голос
06: The Shepherd / Пастух
07: The Heart is a Lonely Hunter / Сердце — одинокий охотник
08: Desperate Souls / Отчаявшиеся души
09: True North / Строго на север
10: 7:15 A.M. / 7.15 утра
11: Fruit of the Poisonous Tree / Запретный плод
12: Skin Deep / Неглубокая рана
13: What Happened to Frederick / Что бы ни случилось с Фредериком
14: Dreamy / Фантазёр
15: Red-Handed / Пойман с поличным
16: Heart of Darkness / Тьма в душе
17: Hat Trick / Фокус со шляпой
18: The Stable Boy / Конюх
19: The Return / Возвращение
20: The Stranger / Чужестранец
21: An Apple Red as Blood / Яблоко, красное как кровь
22: A Land Without Magic / Страна, где нет волшебства
Код:
General
Unique ID                   : 195617567347583490930116666201139966823 (0x932A92B4144341D6BD28DA82CAC5F367)
Complete name               : W:\Uploads\Pirat.Ca\Once Upon A Time - Season 01 (2011)[720p.BluRay.2xRus.Eng]\Once.Upon.A.Time.S01E01.720p.BluRay.2xRus.Eng.HDCLUB.mkv
Format                      : Matroska
Format version              : Version 4 / Version 2
File size                   : 2.10 GiB
Duration                    : 43mn 35s
Overall bit rate            : 6 904 Kbps
Movie name                  : Once Upon A Time 1x01 - Release kmarats for HDCLUB
Encoded date                : UTC 2014-11-03 13:48:55
Writing application         : mkvmerge v6.9.1 ('Blue Panther') 64bit built on Apr 18 2014 18:23:38
Writing library             : libebml v1.3.0 + libmatroska v1.4.1
Video
ID                          : 1
Format                      : AVC
Format/Info                 : Advanced Video Codec
Format profile              : [email protected]
Format settings, CABAC      : Yes
Format settings, ReFrames   : 9 frames
Codec ID                    : V_MPEG4/ISO/AVC
Duration                    : 43mn 35s
Bit rate                    : 5 295 Kbps
Width                       : 1 280 pixels
Height                      : 720 pixels
Display aspect ratio        : 16:9
Frame rate mode             : Constant
Frame rate                  : 23.976 fps
Color space                 : YUV
Chroma subsampling          : 4:2:0
Bit depth                   : 8 bits
Scan type                   : Progressive
Bits/(Pixel*Frame)          : 0.240
Stream size                 : 1.61 GiB (77%)
Title                       : Once Upon A Time 1x01 - Release kmarats for HDCLUB
Writing library             : x264 core 116 r2057 0ba8a9c
Encoding settings           : cabac=1 / ref=9 / deblock=1:-3:-3 / analyse=0x3:0x133 / me=umh / subme=10 / psy=1 / psy_rd=1.00:0.00 / mixed_ref=1 / me_range=32 / chroma_me=1 / trellis=2 / 8x8dct=1 / cqm=0 / deadzone=21,11 / fast_pskip=0 / chroma_qp_offset=-2 / threads=18 / sliced_threads=0 / nr=0 / decimate=0 / interlaced=0 / bluray_compat=0 / constrained_intra=0 / bframes=7 / b_pyramid=2 / b_adapt=2 / b_bias=0 / direct=3 / weightb=1 / open_gop=0 / weightp=2 / keyint=250 / keyint_min=23 / scenecut=40 / intra_refresh=0 / rc_lookahead=40 / rc=crf / mbtree=0 / crf=16.0 / qcomp=0.65 / qpmin=0 / qpmax=40 / qpstep=4 / vbv_maxrate=50000 / vbv_bufsize=50000 / crf_max=0.0 / nal_hrd=none / ip_ratio=1.25 / pb_ratio=1.25 / aq=1:0.60
Language                    : English
Default                     : Yes
Forced                      : No
Audio #1
ID                          : 2
Format                      : AC-3
Format/Info                 : Audio Coding 3
Mode extension              : CM (complete main)
Format settings, Endianness : Big
Codec ID                    : A_AC3
Duration                    : 43mn 35s
Bit rate mode               : Constant
Bit rate                    : 192 Kbps
Channel(s)                  : 2 channels
Channel positions           : Front: L R
Sampling rate               : 48.0 KHz
Bit depth                   : 16 bits
Compression mode            : Lossy
Stream size                 : 59.9 MiB (3%)
Title                       : Nevafilm
Language                    : Russian
Default                     : Yes
Forced                      : No
Audio #2
ID                          : 3
Format                      : AC-3
Format/Info                 : Audio Coding 3
Mode extension              : CM (complete main)
Format settings, Endianness : Big
Codec ID                    : A_AC3
Duration                    : 43mn 35s
Bit rate mode               : Constant
Bit rate                    : 640 Kbps
Channel(s)                  : 6 channels
Channel positions           : Front: L C R, Side: L R, LFE
Sampling rate               : 48.0 KHz
Bit depth                   : 16 bits
Compression mode            : Lossy
Stream size                 : 200 MiB (9%)
Title                       : KVK
Language                    : Russian
Default                     : No
Forced                      : No
Audio #3
ID                          : 4
Format                      : AC-3
Format/Info                 : Audio Coding 3
Mode extension              : CM (complete main)
Format settings, Endianness : Big
Codec ID                    : A_AC3
Duration                    : 43mn 35s
Bit rate mode               : Constant
Bit rate                    : 640 Kbps
Channel(s)                  : 6 channels
Channel positions           : Front: L C R, Side: L R, LFE
Sampling rate               : 48.0 KHz
Bit depth                   : 16 bits
Compression mode            : Lossy
Stream size                 : 200 MiB (9%)
Title                       : English
Language                    : English
Default                     : No
Forced                      : No
Text
ID                          : 5
Format                      : UTF-8
Codec ID                    : S_TEXT/UTF8
Codec ID/Info               : UTF-8 Plain Text
Title                       : eng-sub
Language                    : English
Default                     : No
Forced                      : No
Menu
00:00:00.000                : en:00:00:00.000
00:08:24.129                : en:00:08:24.129
00:15:40.523                : en:00:15:40.523
00:24:55.869                : en:00:24:55.869
00:33:28.173                : en:00:33:28.173
00:42:55.698                : en:00:42:55.698
Download / Скачать

Хотите скачать бесплатно? Зарегистрируйтесь на сайте (ссылка на регистрацию). Pirat.ca - самый быстрый торрент трекер в рунете!

Как скачивать  ·   Что такое торрент  ·   Рейтинг и ограничения



Последний раз редактировалось: TERMOS (2015-12-23 19:14), всего редактировалось 1 раз

TERMOS ®

Легенда

12058

Пост 23-Дек-2015 18:39 (спустя 1 минута)

[Q] 

Скоро Новый Год, каникулы... Можно и пересмотреть...

_________________
[Профиль]  [ЛС] 
Показать сообщения:    
Ответить на тему

Текущее время: Сегодня 05:08

Часовой пояс: GMT + 4



Вы не можете начинать темы
Вы не можете отвечать на сообщения
Вы не можете редактировать свои сообщения
Вы не можете удалять свои сообщения
Вы не можете голосовать в опросах
Вы не можете прикреплять файлы к сообщениям
Вы не можете скачивать файлы

▼ Вниз