ML
     
  Уважаемый Гость!
Вы можете поддержать проект и зарегистрироваться у наших партнеров - онлайн-стратегия MyLands. При регистрации в игре Вы получите код, который сможете активировать после регистрации на pirat.ca и получить 1000 дублонов.

Ваш код:
73640f24f8a0f579e128ea7346fd2db2b1009143
 
     

Однажды в сказке / Once Upon a Time / Сезон: 2 / Серии: 1-22 (22) (Дин Уайт / Dean White, ...) [2012 г., фэнтези, мелодрама, приключения, BDRip, 720p] Dub (НеваФильм) + DVO (Кубик в Кубе) + Original (Eng) + Sub (Rus, Eng)

Ответить на тему
 
Автор
Сообщение

Пост 23-Дек-2015 19:08

[Q] 

TERMOS

Легенда

-Однажды в сказке / Once Upon a Time
«Добро пожаловать в Сторибрук»
(2 сезон)
-- Производство: США
Жанр: фэнтези, мелодрама, приключения
Год выпуска: 2012 г.
Продолжительность: 22x ~00:45:00
Перевод: Профессиональный (полное дублирование) [НеваФильм]
Перевод 2: Профессиональный (двухголосый, закадровый) [Кубик в Кубе]
Оригинальный аудиопоток: английский
Режиссер: Дин Уайт / Dean White, Ральф Хемекер / Ralph Hemecker, Дэвид Соломон / David Solomon, ...-В ролях: Дженнифер Моррисон, Джиннифер Гудвин, Лана Паррия, Джошуа Даллас, Джаред Гилмор, Роберт Карлайл, Рафаэль Сбардж, Меган Ори, Эмили де Рэвин, Колин О’Донохью, ...-Описание: Сюжет фэнтези разворачивается в двух мирах - современном и сказочном. Жизнь 28-летней Эммы Свон меняется, когда ее 10-летний сын Генри, от которого она отказалась много лет назад, находит Эмму и объявляет, что она является дочерью Прекрасного Принца и Белоснежки. Само собой разумеется, у мальчишки нет никаких сомнений, что параллельно нашему существует альтернативный сказочный мир – город Сторибрук, в котором в итоге оказывается Эмма. Постепенно героиня привязывается к необычному мальчику и странному городу, жители которого «забыли», кем они были в прошлом. А все из-за проклятия Злой Королевы (по совместительству приемной матери Генри), с помощью которого колдунья остановила время в сказочной стране. Однако стоит протянуть руку - и сказка оживет. Эпическая битва за будущее двух миров начинается, но, чтобы одержать победу, Эмме придется принять свою судьбу...
- -Качество видео: BDRip
Источник: Once.Upon.A.Time.S02.720p.BluRay.DTS.x264-TayTO
Контейнер: MKV
Стандарт разрешения: 720p
Видео кодек: H.264/AVC
Аудио кодек: AC3, DTS
Видео: 1280x720 at 23.976 fps, ~7000 kbps avg
Аудио: Russian: 48 kHz, AC3, 2/0 (L,R) ch, ~192.00 kbps avg |Дубляж, НеваФильм|
Аудио #2: Russian: 48 kHz, DTS, 3/2 (L,C,R,l,r) + LFE ch, ~1510.00 kbps avg |Двухголосый закадровый, Кубик в Кубе|
Аудио #3: English: 48 kHz, DTS, 3/2 (L,C,R,l,r) + LFE ch, ~1510.00 kbps avg
Cубтитры: Russian (TrueTranslate), English
01: Broken / Сломленный
02: We Are Both / Мы оба
03: Lady of the Lake / Владычица Озера
04: The Crocodile / Крокодил
05: The Doctor / Доктор
06: Tallahassee / Таллахасси
07: Child of the Moon / Дитя Луны
08: Into the Deep / В глубине
09: Queen of Hearts / Королева Червей
10: The Cricket Game / Игра в крикет
11: The Outsider / Аутсайдер
12: In the Name of the Brother / От имени брата
13: Tiny / Крохотный
14: Manhattan / Манхэттен
15: The Queen Is Dead / Королева мертва
16: The Miller's Daughter / Дочь мельника
17: Welcome to Storybrooke / Добро пожаловать в Сторибрук
18: Selfless, Brave and True / Самоотверженный, храбрый, честный
19: Lacey / Лейси
20: The Evil Queen / Злая Королева
21: Second Star To The Right / Вторая звезда направо
22: And Straight On 'Til Morning / И так до самого утра
Код:
General
Unique ID                   : 228925427249044749731707428197037628232 (0xAC396EFC48DC68C489ECD04DDD31DB48)
Complete name               : W:\Uploads\Pirat.Ca\Once Upon A Time - Season 02 (2012)[720p.BluRay.2xRus.Eng]\Once.Upon.a.Time.S02E01.720p.BDRip.2xRus.Eng.Subs-HDCLUB.mkv
Format                      : Matroska
Format version              : Version 2
File size                   : 2.89 GiB
Duration                    : 43mn 3s
Overall bit rate            : 9 604 Kbps
Movie name                  : Once Upon a Time - Release for HDCLUB
Encoded date                : UTC 2014-12-05 16:56:40
Writing application         : mkvmerge v5.5.0 ('Healer') built on Apr  6 2012 21:43:24
Writing library             : libebml v1.2.3 + libmatroska v1.3.0
Video
ID                          : 1
Format                      : AVC
Format/Info                 : Advanced Video Codec
Format profile              : [email protected]
Format settings, CABAC      : Yes
Format settings, ReFrames   : 9 frames
Codec ID                    : V_MPEG4/ISO/AVC
Duration                    : 43mn 3s
Bit rate                    : 6 203 Kbps
Width                       : 1 280 pixels
Height                      : 720 pixels
Display aspect ratio        : 16:9
Frame rate mode             : Constant
Frame rate                  : 23.976 fps
Color space                 : YUV
Chroma subsampling          : 4:2:0
Bit depth                   : 8 bits
Scan type                   : Progressive
Bits/(Pixel*Frame)          : 0.281
Stream size                 : 1.87 GiB (65%)
Title                       : Once Upon a Time - Release for HDCLUB
Writing library             : x264 core 138 r2358 9e941d1
Encoding settings           : cabac=1 / ref=9 / deblock=1:-3:-3 / analyse=0x3:0x133 / me=tesa / subme=11 / psy=1 / psy_rd=1.00:0.00 / mixed_ref=1 / me_range=16 / chroma_me=1 / trellis=2 / 8x8dct=1 / cqm=0 / deadzone=21,11 / fast_pskip=0 / chroma_qp_offset=-2 / threads=12 / lookahead_threads=2 / sliced_threads=0 / nr=0 / decimate=1 / interlaced=0 / bluray_compat=0 / constrained_intra=0 / bframes=7 / b_pyramid=2 / b_adapt=2 / b_bias=0 / direct=3 / weightb=1 / open_gop=0 / weightp=2 / keyint=250 / keyint_min=23 / scenecut=40 / intra_refresh=0 / rc=crf / mbtree=0 / crf=16.6 / qcomp=0.75 / qpmin=0 / qpmax=69 / qpstep=4 / ip_ratio=1.40 / pb_ratio=1.30 / aq=1:0.80
Language                    : English
Default                     : Yes
Forced                      : No
Matrix coefficients         : BT.709
Color range                 : Limited
Audio #1
ID                          : 2
Format                      : AC-3
Format/Info                 : Audio Coding 3
Mode extension              : CM (complete main)
Format settings, Endianness : Big
Codec ID                    : A_AC3
Duration                    : 43mn 3s
Bit rate mode               : Constant
Bit rate                    : 192 Kbps
Channel(s)                  : 2 channels
Channel positions           : Front: L R
Sampling rate               : 48.0 KHz
Bit depth                   : 16 bits
Compression mode            : Lossy
Stream size                 : 59.1 MiB (2%)
Title                       : НеваФильм
Language                    : Russian
Default                     : Yes
Forced                      : No
Audio #2
ID                          : 3
Format                      : DTS
Format/Info                 : Digital Theater Systems
Mode                        : 16
Format settings, Endianness : Big
Codec ID                    : A_DTS
Duration                    : 43mn 3s
Bit rate mode               : Constant
Bit rate                    : 1 509 Kbps
Channel(s)                  : 6 channels
Channel positions           : Front: L C R, Side: L R, LFE
Sampling rate               : 48.0 KHz
Bit depth                   : 24 bits
Compression mode            : Lossy
Stream size                 : 465 MiB (16%)
Title                       : Кубик в Кубе
Language                    : Russian
Default                     : No
Forced                      : No
Audio #3
ID                          : 4
Format                      : DTS
Format/Info                 : Digital Theater Systems
Mode                        : 16
Format settings, Endianness : Big
Codec ID                    : A_DTS
Duration                    : 43mn 3s
Bit rate mode               : Constant
Bit rate                    : 1 509 Kbps
Channel(s)                  : 6 channels
Channel positions           : Front: L C R, Side: L R, LFE
Sampling rate               : 48.0 KHz
Bit depth                   : 24 bits
Compression mode            : Lossy
Stream size                 : 465 MiB (16%)
Language                    : English
Default                     : No
Forced                      : No
Text #1
ID                          : 5
Format                      : UTF-8
Codec ID                    : S_TEXT/UTF8
Codec ID/Info               : UTF-8 Plain Text
Title                       : TrueTranslate
Language                    : Russian
Default                     : No
Forced                      : No
Text #2
ID                          : 6
Format                      : UTF-8
Codec ID                    : S_TEXT/UTF8
Codec ID/Info               : UTF-8 Plain Text
Language                    : English
Default                     : No
Forced                      : No
Menu #1
00:00:00.000                : en:00:00:00.000
00:01:51.111                : en:00:01:51.111
00:12:46.140                : en:00:12:46.140
00:18:39.368                : en:00:18:39.368
00:25:44.334                : en:00:25:44.334
00:30:33.206                : en:00:30:33.206
00:34:54.843                : en:00:34:54.843
00:42:24.500                : en:00:42:24.500
Menu #2
00:00:00.054                : en:00:00:00.054
Download / Скачать

Хотите скачать бесплатно? Зарегистрируйтесь на сайте (ссылка на регистрацию). Pirat.ca - самый быстрый торрент трекер в рунете!

Как скачивать  ·   Что такое торрент  ·   Рейтинг и ограничения

Пост 23-Дек-2015 22:15 (спустя 3 часа)

Топик был перенесен из форума Зарубежные сериалы (Трюм) в форум Зарубежные сериалы
kugesan
 
Показать сообщения:    
Ответить на тему

Текущее время: Сегодня 22:30

Часовой пояс: GMT + 4



Вы не можете начинать темы
Вы не можете отвечать на сообщения
Вы не можете редактировать свои сообщения
Вы не можете удалять свои сообщения
Вы не можете голосовать в опросах
Вы не можете прикреплять файлы к сообщениям
Вы не можете скачивать файлы

▼ Вниз