ML
     
  Уважаемый Гость!
Вы можете поддержать проект и зарегистрироваться у наших партнеров - онлайн-стратегия MyLands. При регистрации в игре Вы получите код, который сможете активировать после регистрации на pirat.ca и получить 1000 дублонов.

Ваш код:
6f9ab67d502902cc72a06c406977ddb589b7f39d
 
     

Теория Большого Взрыва / The Big Bang Theory / Сезон: 1 / Серии: 1-17 (17) (Марк Сендроуски / Mark Cendrowski, Питер Чакос / Peter Chakos) [2007 г., ситуационная комедия, BDRip, 720p] VO (Кураж-Бамбей) + Original (Eng) + Sub (Rus, Eng)

Ответить на тему
 
Автор
Сообщение

Пост 25-Дек-2015 21:55

[Q] 

TERMOS

Легенда

-Теория Большого Взрыва / The Big Bang Theory
«Smart Is The New Sexy»
(1 сезон)
-- Производство: США | Chuck Lorre Productions, Warner Bros. Television
Жанр: ситуационная комедия
Год выпуска: 2007 г.
Продолжительность: 17x ~00:21:00
Перевод: Профессиональный (одноголосый, закадровый) [Кураж-Бамбей]
Оригинальный аудиопоток: английский
Режиссер: Марк Сендроуски / Mark Cendrowski, Питер Чакос / Peter Chakos-В ролях: Джим Парсонс, Джонни Галэки, Кейли Куоко-Суитинг, Саймон Хелберг, Кунал Нэйэр, Мелисса Рауш, Майем Биалик, Кевин Сасмэн, Кэрол Энн Сьюзи, Джон Росс Боуи-Описание: Два блестящих физика, Леонард и Шелдон, «великие умы», которые понимают, как «работает Вселенная». Но их гениальность ничуть не помогает им общаться с людьми, особенно с женщинами. Всё начинает меняться, когда напротив них поселяется красавица Пенни. Когда Леонард и Шелдон встречают Пенни, Леонард сразу же начинает интересоваться ею. Он видит в общении с Пенни огромную перспективу, вплоть до любви, однако Шелдон понимает, что мечтам его друга не суждено сбыться. Стоит также отметить пару странных друзей этих физиков: Воловиц, который любит употреблять фразы на разных языках, включая русский, и Раджеш Кутрапали, теряющий дар речи при виде женщин.
- - -Качество видео: BDRip
Контейнер: MKV
Стандарт разрешения: 720p
Видео кодек: H.264/AVC
Аудио кодек: AC3
Видео: 1280x720, 23.976 fps, ~9000 Kbps avg
Аудио: (RUS) 48.0 KHz, 2 ch, ~192 Kbps avg - |Одноголосый закадровый, Кураж-Бамбей| V. 1
Аудио #2: (RUS) 48.0 KHz, 2 ch, ~192 Kbps avg - |Одноголосый закадровый, Кураж-Бамбей| V.2 по заказу "Paramount Comedy"
Аудио #3: (ENG) 48.0 kHz, 6 ch (Front: L C R, Side: L R, LFE), ~384 Kbps avg
Cубтитры: русские, английские
01: Пилот / Hilot
02: Теория квартирного хаоса / The Big Bran Hypothesis
03: Фактор возбуждения — ноль / The Fuzzy Boots Corollary
04: Академический отпуск / The Luminous Fish Effect
05: По ту сторону галстука / The Hamburger Postulate
06: Костюмированная вечеринка / The Middle Earth Paradigm
07: Четыре минус один / The Dumpling Paradox
08: Чудодейственный «кузнечик» / The Grasshopper Experiment
09: Противостояние / The Cooper-Hofstadter Polarization
10: Совокупность лжи / The Loobenfeld Decay
11: Несносный больной / The Pancake Batter Anomaly
12: Умный и ещё умнее / The Jerusalem Duality
13: Турнир по физике / The Bat Jar Conjecture
14: Машина времени / The Nerdvana Annihilation
15: Шелдон 2.0 / The Pork Chop Indeterminacy
16: Сюрприз для Леонарда / The Peanut Reaction
17: Кот Шрёдингера / The Tangerine Factor
Код:
General
Unique ID                   : 192990808591362235287424298663353152749 (0x9130AD7F6F7B213D8F3CDE162BD274ED)
Complete name               : D:\Uploads\Pirat.Ca\The Big Bang Theory - Season 1 (2007)[720p.BDRip.Rus.Eng]\The.Big.Bang.Theory.S01E01.720p.BDRip.Rus.Eng.mkv
Format                      : Matroska
Format version              : Version 4 / Version 2
File size                   : 1.61 GiB
Duration                    : 22mn 58s
Overall bit rate            : 10.0 Mbps
Encoded date                : UTC 2015-04-11 08:52:53
Writing application         : mkvmerge v7.0.0 ('Where We Going') 64bit built on Jun  9 2014 15:16:27
Writing library             : libebml v1.3.0 + libmatroska v1.4.1
DURATION                    : 00:22:52.453000000
NUMBER_OF_FRAMES            : 406
NUMBER_OF_BYTES             : 15893
_STATISTICS_WRITING_APP     : mkvmerge v7.0.0 ('Where We Going') 64bit built on Jun  9 2014 15:16:27
_STATISTICS_WRITING_DATE_UT : 2015-04-11 08:52:53
_STATISTICS_TAGS            : BPS DURATION NUMBER_OF_FRAMES NUMBER_OF_BYTES
Video
ID                          : 1
Format                      : AVC
Format/Info                 : Advanced Video Codec
Format profile              : [email protected]
Format settings, CABAC      : Yes
Format settings, ReFrames   : 9 frames
Codec ID                    : V_MPEG4/ISO/AVC
Duration                    : 22mn 58s
Bit rate                    : 9 000 Kbps
Width                       : 1 280 pixels
Height                      : 720 pixels
Display aspect ratio        : 16:9
Frame rate mode             : Constant
Frame rate                  : 23.976 fps
Color space                 : YUV
Chroma subsampling          : 4:2:0
Bit depth                   : 8 bits
Scan type                   : Progressive
Bits/(Pixel*Frame)          : 0.407
Stream size                 : 1.41 GiB (88%)
Writing library             : x264 core 116 r2057 0ba8a9c
Encoding settings           : cabac=1 / ref=9 / deblock=1:-3:-3 / analyse=0x3:0x133 / me=umh / subme=10 / psy=1 / psy_rd=1.00:0.00 / mixed_ref=1 / me_range=32 / chroma_me=1 / trellis=2 / 8x8dct=1 / cqm=0 / deadzone=21,11 / fast_pskip=0 / chroma_qp_offset=-2 / threads=14 / sliced_threads=0 / nr=0 / decimate=0 / interlaced=0 / bluray_compat=0 / constrained_intra=0 / bframes=7 / b_pyramid=2 / b_adapt=2 / b_bias=0 / direct=3 / weightb=1 / open_gop=0 / weightp=2 / keyint=250 / keyint_min=23 / scenecut=40 / intra_refresh=0 / rc_lookahead=40 / rc=2pass / mbtree=0 / bitrate=9000 / ratetol=1.0 / qcomp=0.65 / qpmin=0 / qpmax=40 / qpstep=4 / cplxblur=20.0 / qblur=0.5 / vbv_maxrate=50000 / vbv_bufsize=50000 / nal_hrd=none / ip_ratio=1.25 / pb_ratio=1.25 / aq=1:0.65
Language                    : English
Default                     : Yes
Forced                      : No
DURATION                    : 00:22:57.418000000
NUMBER_OF_FRAMES            : 33025
NUMBER_OF_BYTES             : 1547343527
_STATISTICS_WRITING_APP     : mkvmerge v7.0.0 ('Where We Going') 64bit built on Jun  9 2014 15:16:27
_STATISTICS_WRITING_DATE_UT : 2015-04-11 08:52:53
_STATISTICS_TAGS            : BPS DURATION NUMBER_OF_FRAMES NUMBER_OF_BYTES
Audio #1
ID                          : 2
Format                      : AC-3
Format/Info                 : Audio Coding 3
Mode extension              : CM (complete main)
Format settings, Endianness : Big
Codec ID                    : A_AC3
Duration                    : 22mn 58s
Bit rate mode               : Constant
Bit rate                    : 192 Kbps
Channel(s)                  : 2 channels
Channel positions           : Front: L R
Sampling rate               : 48.0 KHz
Bit depth                   : 16 bits
Compression mode            : Lossy
Stream size                 : 31.5 MiB (2%)
Title                       : Kuraj-Bambey v1
Language                    : Russian
Default                     : No
Forced                      : No
Audio #2
ID                          : 3
Format                      : AC-3
Format/Info                 : Audio Coding 3
Mode extension              : CM (complete main)
Format settings, Endianness : Big
Codec ID                    : A_AC3
Duration                    : 22mn 58s
Bit rate mode               : Constant
Bit rate                    : 192 Kbps
Channel(s)                  : 2 channels
Channel positions           : Front: L R
Sampling rate               : 48.0 KHz
Bit depth                   : 16 bits
Compression mode            : Lossy
Stream size                 : 31.5 MiB (2%)
Title                       : Paramount Comedy (Kuraj-Bambey v2)
Language                    : Russian
Default                     : Yes
Forced                      : No
Audio #3
ID                          : 4
Format                      : AC-3
Format/Info                 : Audio Coding 3
Mode extension              : CM (complete main)
Format settings, Endianness : Big
Codec ID                    : A_AC3
Duration                    : 22mn 58s
Bit rate mode               : Constant
Bit rate                    : 640 Kbps
Channel(s)                  : 6 channels
Channel positions           : Front: L C R, Side: L R, LFE
Sampling rate               : 48.0 KHz
Bit depth                   : 16 bits
Compression mode            : Lossy
Stream size                 : 105 MiB (6%)
Title                       : Original
Language                    : English
Default                     : No
Forced                      : No
Text #1
ID                          : 5
Format                      : UTF-8
Codec ID                    : S_TEXT/UTF8
Codec ID/Info               : UTF-8 Plain Text
Language                    : Russian
Default                     : No
Forced                      : No
Text #2
ID                          : 6
Format                      : UTF-8
Codec ID                    : S_TEXT/UTF8
Codec ID/Info               : UTF-8 Plain Text
Language                    : English
Default                     : Yes
Forced                      : No
Menu
00:00:00.000                : en:00:00:00.000
00:06:24.426                : en:00:06:24.426
00:15:49.115                : en:00:15:49.115
00:21:37.671                : en:00:21:37.671
00:22:29.557                : en:00:22:29.557
Download / Скачать

Хотите скачать бесплатно? Зарегистрируйтесь на сайте (ссылка на регистрацию). Pirat.ca - самый быстрый торрент трекер в рунете!

Как скачивать  ·   Что такое торрент  ·   Рейтинг и ограничения

TERMOS ®

Легенда

12002

Пост 25-Дек-2015 21:59 (спустя 4 минуты)

[Q] 

По умолчанию вторая дорога.

_________________
[Профиль]  [ЛС] 
Показать сообщения:    
Ответить на тему

Текущее время: Сегодня 16:33

Часовой пояс: GMT + 4



Вы не можете начинать темы
Вы не можете отвечать на сообщения
Вы не можете редактировать свои сообщения
Вы не можете удалять свои сообщения
Вы не можете голосовать в опросах
Вы не можете прикреплять файлы к сообщениям
Вы не можете скачивать файлы

▼ Вниз