ML
     
  Уважаемый Гость!
Вы можете поддержать проект и зарегистрироваться у наших партнеров - онлайн-стратегия MyLands. При регистрации в игре Вы получите код, который сможете активировать после регистрации на pirat.ca и получить 1000 дублонов.

Ваш код:
b70663c760e7cd2521b8e123786cdd788200e3bd
 
     

В пустыне смерти / Into the Badlands / Сезон 1 / Серии: 6 из 6 (Дэвид Добкин / David Dobkin, ...) [2015г., боевик, драма, приключения, ... WEB-DLRip] MVO (LostFilm) [финал сезона]

Ответить на тему
 
Автор
Сообщение

Пост 26-Дек-2015 00:06

[Q] 

kugesan

В пустыне смерти / Into the Badland
«There is no god in the badlands»
- Страна: США
Год выпуска: 2015
Жанр: боевик, драма, приключения, ...-Озвучка: Студия
Перевод: Многоголосый закадровый, профессиональный-Премьера (мир): 15 ноября 2015, ...
Премьера (РФ): 16 ноября 2015-Режиссер: Дэвид Добкин / David Dobkin, Гай Ферленд / Guy Ferland
В главных ролях: Дэниэл Ву (Санни), Мартон Чокаш (барон Куинн), Орла Брэйди (Лидия), Сара Болджер (Джейд), Арамис Найт (Эм Кей), Эмили Бичем (Вдова), Оливер Старк (Райдер), Элли Иоаннидес (Тильда), ...-Описание фильма:
Приключенческий боевик о двух друзьях. В пустыне смерти, какие испытания предстоит пройти главным героям на пути просвещения. Ради обретения высшей мудрости мастер боевых искусств Санни и его юный напарник решают пройти через неизведанные земли. Они знают, что там их будут встречать враждебно, но ради высшей цели главные герои готовы вынести всё. В основу сюжета сериала был положен китайский роман под названием «Путешествие на Запад». Во время путешествия Санни покажет в полной мере своё мастерство, а его юный друг сможет многому научиться, и владению собственным телом, и контролю над собственным духом.-Сезон: 1
Серии: 6 из 6 серий
Продолжительность: ~ 00:44:00 мин серия-Качество видео: WEB-DLRip
Формат: AVI
Видеокодек: XviD
Аудиокодек: Mp3
Видео: MPEG-4 Visual at 1915 Кбит/сек: 720 x 400 (1.800) at 23.976 fps, 0.28 Бит/Пиксели
Аудио Rus: MPEG Audio at 192 Кбит/сек: 2 канала, 48,0 КГц |LostFilm|
- -
  • Форт (The Fort)
  • Кулак словно пуля (Fist Like A Bullet)
  • Белый аист расправляет крылья (White Stork Spreads Wings)
  • Два тигра покоряют дракона (Two Tigers Subdue Dragons)
  • Змея подползает (Snake Creeps Down)
  • Рука пяти ядов (Hand Of Five Poisons)
-
Общее
Полное имя : E:\_Сериалы\_Сериалы\В пустыне смерти\Into.The.Badlands.S01.rus.LostFilm.TV\Into.The.Badlands.S01E01.rus.LostFilm.TV.avi
Формат : AVI
Формат/Информация : Audio Video Interleave
Размер файла : 667 Мбайт
Продолжительность : 44 м.
Режим общего битрейта : Переменный
Общий поток : 2113 Кбит/сек
Программа кодирования : Nandub v1.0rc2
Библиотека кодирования : Nandub build 1853/release
Видео
Идентификатор : 0
Формат : MPEG-4 Visual
Профиль формата : Advanced [email protected]
Параметр BVOP формата : Нет
Параметр QPel формата : Нет
Параметр GMC формата : Без точки перехода
Параметр матрицы формата : Default (H.263)
Идентификатор кодека : XVID
Идентификатор кодека/Подсказка : XviD
Продолжительность : 44 м.
Битрейт : 1915 Кбит/сек
Ширина : 720 пикселей
Высота : 400 пикселей
Соотношение сторон : 16:9
Частота кадров : 23,976 (23976/1000) кадра/сек
Цветовое пространство : YUV
Субдискретизация насыщенности : 4:2:0
Битовая глубина : 8 бит
Тип развёртки : Прогрессивная
Метод сжатия : С потерями
Бит/(Пиксели*Кадры) : 0.277
Размер потока : 605 Мбайт (91%)
Библиотека кодирования : XviD 1.2.1 (UTC 2008-12-04)
Аудио
Идентификатор : 1
Формат : MPEG Audio
Версия формата : Version 1
Профиль формата : Layer 3
Режим : Joint stereo
Расширение режима : MS Stereo
Идентификатор кодека : 55
Идентификатор кодека/Подсказка : MP3
Продолжительность : 44 м.
Вид битрейта : Переменный
Битрейт : 192 Кбит/сек
Каналы : 2 канала
Частота : 48,0 КГц
Метод сжатия : С потерями
Размер потока : 58,6 Мбайт (9%)
Выравнивание : Соединение по промежуткам
Продолжительность промежутка : 24 мс. (0,58 видеокадр)
Время предзагрузки промежутка : 488 мс.
Библиотека кодирования : LAME3.97b
Настройки программы : -m j -V 4 -q 3 -lowpass 18.6 --abr 192
-
-Скриншоты:
-
-
Раздача ведётся путём добавления новых серий; при каждом добавлении создаётся новый торрент.
Чтобы начать докачку новой серии, пользователям необходимо сделать следующее:
1. остановить скачивание,
2. удалить старый торрент у себя из клиента (старые серии удалять не надо),
3. скачать новый торрент и запустить его у себя в клиенте вместо старого, при этом указать клиенту путь в старую папку, куда и должно происходить скачивание новых серий.
Ваш клиент при этом должен произвести хеширование (проверку) старой папки (если не производит сам - помогите ему сделать это), и будет докачивать только те серии которых у вас ещё нет. Старые серии при этом не удаляются, а продолжают раздаваться!
Eсли вы уже удалили старые серии, то предотвратить повторную закачку старых серий можно, отжав галочку в соответствующих местах при запуске нового торрента. По возможности, желательно не удалять старые серии как можно дольше, чтобы релизёр не столько продолжал раздавать старые серии, а смог сконцентрироваться на новых.
Совет для тех, кто не хочет ждать перехеширования:
Создайте ещё одну папку рядом с папкой сериала (рядом, а не в ней!!!). Каждую новую серию после удачной загрузки копируйте в новую папку так чтобы ваша основная папка всегда была пуста. Когда ваш новый торрент предложит вам закачать все файлы, выберете только последнюю. Для сидирования же укажите адрес новой папки.
Как закачать отдельный файл из торрента или докачать ранее пропущенные файлы торрента!
-
1. Открыть торрент
2. Снять галки с тех файлов торрента, которые мы не хотим закачивать. Оставляем только на нужных нам файлах (файле).
3. Нажать О.К.
В клиенте utorrent
Инструкция
1) Открыть торрент

2) Снять галки с тех файлов торрента, которые мы не хотим закачивать:
* либо вручную, снимая с каждого файла галку( скрин №1)
* либо, нажав кнопку "Снять метки (Select None)", сняв сразу со всех файлов(скрин №2)
№1

№2

Оставляем только на нужных нам файлах (файле).

3)Нажать О.К
-Добавлена шестая, заключительная, серия первого сезона
Download / Скачать

Хотите скачать бесплатно? Зарегистрируйтесь на сайте (ссылка на регистрацию). Pirat.ca - самый быстрый торрент трекер в рунете!

Как скачивать  ·   Что такое торрент  ·   Рейтинг и ограничения



Последний раз редактировалось: kugesan (2016-01-04 20:55), всего редактировалось 7 раз(а)

ladranik

Морской Волк

Пост 27-Дек-2015 12:02 (спустя 1 день 11 часов)

[Q] 

спасибо, посмотрим.
[Профиль]  [ЛС] 

ladranik

Морской Волк

Пост 28-Дек-2015 20:10 (спустя 1 день 8 часов)

[Q] 

спасибо
[Профиль]  [ЛС] 

kugesan ®

56632

Пост 29-Дек-2015 22:45 (спустя 1 день 2 часа)

[Q] 

Приятного просмотра!!!

_________________

В мире две бесконечности: вселенная и человеческая глупость - Альберт Эйнштен
«Можно вытащить человека из грязи, но нельзя вытащить грязь из человека»!
[Профиль]  [ЛС] 

kugesan ®

56632

Пост 04-Янв-2016 20:57 (спустя 5 дней)

[Q] 

Добавлена шестая, заключительная, серия первого сезона

_________________

В мире две бесконечности: вселенная и человеческая глупость - Альберт Эйнштен
«Можно вытащить человека из грязи, но нельзя вытащить грязь из человека»!
[Профиль]  [ЛС] 

v-41028

Штурман

Пост 04-Янв-2016 21:52 (спустя 55 минут)

[Q] 

Похоже все на "каникулах". Ни одного байта не скачал.
[Профиль]  [ЛС] 

Пост 05-Янв-2016 17:51 (спустя 19 часов)

Топик был перенесен из форума Сериалы в эфире в форум Зарубежные сериалы
erchine
 
Показать сообщения:    
Ответить на тему

Текущее время: Сегодня 00:23

Часовой пояс: GMT + 4



Вы не можете начинать темы
Вы не можете отвечать на сообщения
Вы не можете редактировать свои сообщения
Вы не можете удалять свои сообщения
Вы не можете голосовать в опросах
Вы не можете прикреплять файлы к сообщениям
Вы не можете скачивать файлы

▼ Вниз