ML
     
  Уважаемый Гость!
Вы можете поддержать проект и зарегистрироваться у наших партнеров - онлайн-стратегия MyLands. При регистрации в игре Вы получите код, который сможете активировать после регистрации на pirat.ca и получить 1000 дублонов.

Ваш код:
fcd618d94adc1456bccbde5047c9cd0930e4ae4d
 
     

Нарко (Барыги) / Narcos / Сезон: 1 / Серии: 1-10 (10) (Андрес Байс / Andrés Baiz, Фернандо Коимбра / Fernando Coimbra, ...) [2015 г., криминал, драма, WEB-DLRip, 1080p] MVO (LostFilm) + Original (Eng) + Sub (Eng)

Ответить на тему
 
Автор
Сообщение

Пост 26-Дек-2015 22:39

[Q] 

TERMOS

Легенда

-Нарко (Барыги) / Narcos
«There's no business like blow business»
(1 сезон)
-- Производство: США
Жанр: криминал, драма
Год выпуска: 2015 г.
Продолжительность: 10x ~00:50:00
Перевод: Профессиональный (многоголосый, закадровый) [LostFilm]
Оригинальный аудиопоток: английский
Режиссер: Андрес Байс / Andrés Baiz, Фернандо Коимбра / Fernando Coimbra, ...-В ролях: Вагнер Моура, Бойд Холбрук, Педро Паскаль, Джоанна Кристи, Морис Комт, Jasón Chad, Паулина Гайтан, Даниэль Кеннеди, Ричард Т. Джонс, Хуан Мурсия, ...-Описание: «Барыги» — основанная на реальных событиях криминальная драма телеканала Netflix, которая начинается как история одного полицейского, повествующего о том, что его служба опасна и трудна. Однако вскоре зритель с головой погружается в атмосферу закулисья главной нарковойны Америки — войны с кокаиновым королем Пабло Эскобаром. Благодаря серьезному подходу создателей проекта к теме наркотрафика «Барыги» придутся по вкусу всем поклонникам эпичных телевизионных проектов, в центре внимания которых оказываются не только главные действующие лица истории, но и тщательный анализ определенного явления в целом, в данном случае — становления криминальной империи Пабло Эскобара.
- - -Качество видео: WEB-DLRip
Контейнер: MKV
Источник: Narcos.S01.REPACK.1080p.WEBRip.DD5.1.x264-NTb
Стандарт разрешения: 1080p
Видео кодек: H.264/AVC
Аудио кодек: AC3
Видео: 1920×1080 at 23.976 fps, ~6500 Kbps avg
Аудио: Russian: 48 kHz, AC3, 3/2 (L,C,R,l,r) + LFE ch, ~384.00.00 kbps avg |Многоголосый закадровый, LostFilm|
Аудио #2: English: 48 kHz, AC3, 3/2 (L,C,R,l,r) + LFE ch, ~384.00.00 kbps avg
Cубтитры: English
• В одной из последних серий, первого сезона, к дому Пабло Эскобара приезжает журналистка его любовница на BMW 5-й серии в кузове e39. Этот BMW дебютировал в 1995 года. А Пабло умер 2 декабря 1993. В той сцене до его смерти как минимум 3-4 года.
• В последней серии первого сезона на 42-й минуте, когда мать Пабло Эскобара передаёт пачки денег его жене видно, что вместо денег белая бумага.
Episode 1: Descenso / Падение
Episode 2: The Sword of Simón Bolivar / Сабля Симона Боливара
Episode 3: The Men of Always / Вечные люди
Episode 4: The Palace in Flames / Дворец в огне
Episode 5: There Will Be a Future / Будущее точно придёт
Episode 6: Explosivos / Взрывчатка
Episode 7: You Will Cry Tears of Blood / Ты изойдёшь кровавыми слезами
Episode 8: La Gran Mentira / Великая ложь
Episode 9: La Catedral / Ла Катедраль
Episode 10: Despegue / Отрыв
Код:
General
Unique ID                   : 245183355905369797761541288570830761316 (0xB87498C15AAAC8DDA84C1C4B02BCAD64)
Complete name               : W:\Uploads\Pirat.Ca\Narcos - Season 01 (2015)[1080p.WEB-DLRip.Rus.Eng]\Narcos.S01E01.1080p.WEBRip.Rus.Eng.HDCLUB.mkv
Format                      : Matroska
Format version              : Version 2
File size                   : 2.93 GiB
Duration                    : 56mn 56s
Overall bit rate            : 7 364 Kbps
Movie name                  : Narcos | Season 1 (2015) | 01 - Descenso (Release for HDCLUB)
Encoded date                : UTC 2015-09-08 20:25:24
Writing application         : mkvmerge v8.3.0 ('Over the Horizon') 64bit
Writing library             : libebml v1.3.1 + libmatroska v1.4.2
Video
ID                          : 1
Format                      : AVC
Format/Info                 : Advanced Video Codec
Format profile              : [email protected]
Format settings, CABAC      : Yes
Format settings, ReFrames   : 4 frames
Codec ID                    : V_MPEG4/ISO/AVC
Duration                    : 56mn 56s
Bit rate                    : 6 449 Kbps
Width                       : 1 920 pixels
Height                      : 1 080 pixels
Display aspect ratio        : 16:9
Frame rate mode             : Constant
Frame rate                  : 23.976 fps
Color space                 : YUV
Chroma subsampling          : 4:2:0
Bit depth                   : 8 bits
Scan type                   : Progressive
Bits/(Pixel*Frame)          : 0.130
Stream size                 : 2.56 GiB (88%)
Title                       : Narcos | Season 1 (2015) | 01 - Descenso (Падение)
Writing library             : x264 core 144 r2525 40bb568
Encoding settings           : cabac=1 / ref=4 / deblock=1:-3:-3 / analyse=0x3:0x133 / me=umh / subme=10 / psy=1 / psy_rd=1.00:0.00 / mixed_ref=1 / me_range=48 / chroma_me=1 / trellis=2 / 8x8dct=1 / cqm=0 / deadzone=21,11 / fast_pskip=0 / chroma_qp_offset=-2 / threads=12 / lookahead_threads=2 / sliced_threads=0 / nr=0 / decimate=0 / interlaced=0 / bluray_compat=0 / constrained_intra=0 / bframes=8 / b_pyramid=2 / b_adapt=2 / b_bias=0 / direct=3 / weightb=1 / open_gop=0 / weightp=2 / keyint=250 / keyint_min=24 / scenecut=40 / intra_refresh=0 / rc=crf / mbtree=0 / crf=18.0 / qcomp=0.60 / qpmin=0 / qpmax=69 / qpstep=4 / ip_ratio=1.40 / pb_ratio=1.30 / aq=1:0.65
Language                    : English
Default                     : Yes
Forced                      : No
Audio #1
ID                          : 2
Format                      : AC-3
Format/Info                 : Audio Coding 3
Mode extension              : CM (complete main)
Format settings, Endianness : Big
Codec ID                    : A_AC3
Duration                    : 56mn 56s
Bit rate mode               : Constant
Bit rate                    : 384 Kbps
Channel(s)                  : 6 channels
Channel positions           : Front: L C R, Side: L R, LFE
Sampling rate               : 48.0 KHz
Bit depth                   : 16 bits
Compression mode            : Lossy
Stream size                 : 156 MiB (5%)
Title                       : DD 5.1 @ 384 kbps (LostFilm)
Language                    : Russian
Default                     : Yes
Forced                      : No
Audio #2
ID                          : 3
Format                      : AC-3
Format/Info                 : Audio Coding 3
Mode extension              : CM (complete main)
Format settings, Endianness : Big
Codec ID                    : A_AC3
Duration                    : 56mn 56s
Bit rate mode               : Constant
Bit rate                    : 384 Kbps
Channel(s)                  : 6 channels
Channel positions           : Front: L C R, Side: L R, LFE
Sampling rate               : 48.0 KHz
Bit depth                   : 16 bits
Compression mode            : Lossy
Stream size                 : 156 MiB (5%)
Title                       : DD 5.1 @ 384 kbps
Language                    : English
Default                     : No
Forced                      : No
Text
ID                          : 4
Format                      : UTF-8
Codec ID                    : S_TEXT/UTF8
Codec ID/Info               : UTF-8 Plain Text
Language                    : English
Default                     : No
Forced                      : No
Download / Скачать

Хотите скачать бесплатно? Зарегистрируйтесь на сайте (ссылка на регистрацию). Pirat.ca - самый быстрый торрент трекер в рунете!

Как скачивать  ·   Что такое торрент  ·   Рейтинг и ограничения



Последний раз редактировалось: TERMOS (2016-01-04 13:03), всего редактировалось 2 раз(а)

Tapac84

Корсар

Пост 27-Дек-2015 00:15 (спустя 1 час 35 минут)

[Q] 

и всё-же размер имеет значение....
полегче не будет?
[Профиль]  [ЛС] 

TERMOS ®

Легенда

12061

Пост 27-Дек-2015 00:28 (спустя 13 минут)

[Q] 

Tapac84, Вы правы - перезалью.
Сериал-то не плох. 33 место у пиндосов...
Модераторы, не меняйте статус.

_________________
[Профиль]  [ЛС] 

Андря

8419

Пост 27-Дек-2015 01:24 (спустя 55 минут)

[Q] 

725314Модераторы, не меняйте статус.
договорились

_________________
Като Тешекика
[Профиль]  [ЛС] 

TERMOS ®

Легенда

12061

Пост 27-Дек-2015 17:11 (спустя 15 часов)

[Q] 

Андря, не, качают - меняйте))
Версию 1080р скоро добавлю.

_________________
[Профиль]  [ЛС] 

Пост 27-Дек-2015 21:45 (спустя 4 часа)

Топик был перенесен из форума Зарубежные сериалы (Трюм) в форум Зарубежные сериалы
Андря
 

TERMOS ®

Легенда

12061

Пост 04-Янв-2016 13:02 (спустя 7 дней)

[Q] 

Замена раздачи на версию 1080р. Обновите торрент-файл!

_________________
[Профиль]  [ЛС] 

Tapac84

Корсар

Пост 11-Янв-2016 21:03 (спустя 7 дней)

[Q] 

TERMOS, спасибо за понимание )
[Профиль]  [ЛС] 

white_cat

Штурман

Пост 06-Сен-2016 21:51 (спустя 7 месяцев 26 дней)

[Q] 

хороший сериал
[Профиль]  [ЛС] 
Показать сообщения:    
Ответить на тему

Текущее время: Сегодня 12:49

Часовой пояс: GMT + 4



Вы не можете начинать темы
Вы не можете отвечать на сообщения
Вы не можете редактировать свои сообщения
Вы не можете удалять свои сообщения
Вы не можете голосовать в опросах
Вы не можете прикреплять файлы к сообщениям
Вы не можете скачивать файлы

▼ Вниз