ML
     
  Уважаемый Гость!
Вы можете поддержать проект и зарегистрироваться у наших партнеров - онлайн-стратегия MyLands. При регистрации в игре Вы получите код, который сможете активировать после регистрации на pirat.ca и получить 1000 дублонов.

Ваш код:
a01a592a88af5f9996a6d1baec61b18a1769954d
 
     

Игра престолов / Game of thrones / Сезон: 1 / Серии: 1-10 (Алан Тейлор, Брайан Кирк, Даниэль Минахан) [2011 г., драма, фэнтези, HD TVRIP-AVC, 720p] MVO (Alexfilm) [Sub (Rus), + Original (Eng)]

Ответить на тему
 
Автор
Сообщение

Пост 27-Дек-2015 20:21

[Q] 

goneforwork

Штурман

-Игра престолов / Game of Thrones-- Производство: США, HBO
Жанр: драма, фэнтези
Год выпуска: 2011 г.
Продолжительность: ~56:00
Перевод: Профессиональный (многоголосый, закадровый) [Alexfilm]
Оригинальный аудиопоток: английский
Режиссер: Алан Тейлор, Брайан Кирк, Даниэль Минахан-В ролях: Шон Бин, Эмилия Кларк, Питер Динклэйдж, Николай Костер-Вальдау, Лена Хиди, Мэйси Уильямс, Софи Тёрнер, Марк Эдди, Кит Харингтон, Альфи Аллен, Ричард Мэдден, Джек Глисон, Иэн Глен, Мишель Фэйрли, Эйдан Гиллен, Кэрис ван Хаутен, Чарльз Дэнс-Описание: «Игра престолов» новый сериал HBO, основанный на бестселлерах Джорджа Р.Р. Мартина. В мире, где лето и зимы длятся десятилетиями, на кону корона Вестероса. Предательство, похоть, интриги и сверхъестественные силы сотрясают все четыре стороны Королевства — от плетущего интриги юга, диких восточных земель, до замерзшего севера и древней Стены, что защищает королевство от тьмы за нею. Короли и королевы, рыцари и мятежники, лжецы и благородные люди борются за власть в кровавом сражении за Железный Трон..-
Качество видео: HD TVRIP-AVC
Контейнер: MKV
Стандарт разрешения: 720p
Видео кодек: H.264
Аудио кодек: AC3
Видео: 1280x714, 5800 Kbps, 24fps
Аудио: 384 Kbps, 5.1 ch, 48 kHz, MVO (AlexFilm)
Аудио #2: 384 Kbps, 5.1 ch, 48 kHz (Original Eng)
Cубтитры: русские
Формат субтитров: prerendered (IDX+SUB)
Доп. информация о субтитрах: на дотракийскую и валирийскую речь
Общее
Уникальный идентификатор : 179496195948956848311912645977921551964 (0x8709B5B9EB9C6912BCA9F04F602FFE5C)
Полное имя : D:\MOVIES\Game.of.Thrones.s01.hdtv.720p.ac3.rus.eng.AlexFilm\Game.of.Thrones.s01e01.hdtv.720p.ac3.rus.eng.AlexFilm.mkv
Формат : Matroska
Версия формата : Version 2
Размер файла : 2,83 Гбайт
Продолжительность : 1 ч. 1 м.
Общий поток : 6572 Кбит/сек
Дата кодирования : UTC 2011-04-22 20:12:03
Программа кодирования : mkvmerge v4.6.0 ('Still Crazy After All These Years') сборка от Mar 10 2011 02:50:32
Библиотека кодирования : libebml v1.2.0 + libmatroska v1.1.0
Видео
Идентификатор : 1
Формат : AVC
Формат/Информация : Advanced Video Codec
Профиль формата : [email protected]
Параметр CABAC формата : Да
Параметр ReFrames формата : 9 кадров
Идентификатор кодека : V_MPEG4/ISO/AVC
Продолжительность : 1 ч. 1 м.
Битрейт : 5800 Кбит/сек
Ширина : 1280 пикселей
Высота : 714 пикселей
Соотношение сторон : 16:9
Режим частоты кадров : Постоянный
Частота кадров : 23,976 (24000/1001) кадра/сек
Цветовое пространство : YUV
Субдискретизация насыщенности : 4:2:0
Битовая глубина : 8 бит
Тип развёртки : Прогрессивная
Бит/(Пиксели*Кадры) : 0.265
Размер потока : 2,44 Гбайт (86%)
Заголовок : Game of Thrones - Season 1, Episode 1: Winter Is Coming ("Зима Близко")
Библиотека кодирования : x264 core 115 r1936 7a9e08d
Настройки программы : cabac=1 / ref=9 / deblock=1:-3:-3 / analyse=0x3:0x133 / me=tesa / subme=10 / psy=1 / psy_rd=1.10:0.10 / mixed_ref=1 / me_range=32 / chroma_me=1 / trellis=2 / 8x8dct=1 / cqm=0 / deadzone=21,11 / fast_pskip=0 / chroma_qp_offset=-3 / threads=8 / sliced_threads=0 / nr=0 / decimate=0 / interlaced=0 / bluray_compat=0 / constrained_intra=0 / bframes=12 / b_pyramid=2 / b_adapt=2 / b_bias=0 / direct=3 / weightb=1 / open_gop=0 / weightp=2 / keyint=250 / keyint_min=23 / scenecut=40 / intra_refresh=0 / rc=2pass / mbtree=0 / bitrate=5800 / ratetol=1.0 / qcomp=0.70 / qpmin=0 / qpmax=69 / qpstep=4 / cplxblur=20.0 / qblur=0.5 / ip_ratio=1.40 / pb_ratio=1.30 / aq=2:0.60
Язык : English
Default : Да
Forced : Нет
Аудио #1
Идентификатор : 2
Формат : AC-3
Формат/Информация : Audio Coding 3
Расширение режима : CM (complete main)
Параметр Endianness формата : Big
Идентификатор кодека : A_AC3
Продолжительность : 1 ч. 1 м.
Вид битрейта : Постоянный
Битрейт : 384 Кбит/сек
Каналы : 6 каналов
Расположение каналов : Front: L C R, Side: L R, LFE
Частота : 48,0 КГц
Частота кадров : 31,250 кадров/сек (1536 spf)
Метод сжатия : С потерями
Размер потока : 169 Мбайт (6%)
Заголовок : Dolby Digital 5.1 @ 384 kbps
Язык : Russian
Default : Да
Forced : Нет
Аудио #2
Идентификатор : 3
Формат : AC-3
Формат/Информация : Audio Coding 3
Расширение режима : CM (complete main)
Параметр Endianness формата : Big
Идентификатор кодека : A_AC3
Продолжительность : 1 ч. 1 м.
Вид битрейта : Постоянный
Битрейт : 384 Кбит/сек
Каналы : 2 канала
Расположение каналов : Front: L R
Частота : 48,0 КГц
Частота кадров : 31,250 кадров/сек (1536 spf)
Метод сжатия : С потерями
Размер потока : 169 Мбайт (6%)
Заголовок : Dolby Digital 5.1 @ 384 kbps
Язык : English
Default : Нет
Forced : Нет
Текст
Идентификатор : 4
Формат : ASS
Идентификатор кодека : S_TEXT/ASS
Идентификатор кодека/Информация : Advanced Sub Station Alpha
Метод сжатия : Без потерь
Заголовок : Forced
Язык : Russian
Default : Да
Forced : Нет
Download / Скачать

Хотите скачать бесплатно? Зарегистрируйтесь на сайте (ссылка на регистрацию). Pirat.ca - самый быстрый торрент трекер в рунете!

Как скачивать  ·   Что такое торрент  ·   Рейтинг и ограничения

goneforwork ®

Штурман

80

Пост 27-Дек-2015 20:39 (спустя 18 минут)

[Q] 

Оригинальная раздача 720p с почившего безвременно N******m.TV
[Профиль]  [ЛС] 

Пост 28-Дек-2015 10:08 (спустя 13 часов)

Топик был перенесен из форума Зарубежные сериалы (Трюм) в форум Зарубежные сериалы
Андря
 

Vovan_vikinger

Морской Волк

78

Пост 28-Дек-2015 17:02 (спустя 20 часов)

[Q] 

странный сериал

_________________
[Профиль]  [ЛС] 

invik

Лоцман

Пост 10-Янв-2016 22:00 (спустя 13 дней)

[Q] 

раздача встала
[Профиль]  [ЛС] 
Показать сообщения:    
Ответить на тему

Текущее время: Сегодня 09:50

Часовой пояс: GMT + 4



Вы не можете начинать темы
Вы не можете отвечать на сообщения
Вы не можете редактировать свои сообщения
Вы не можете удалять свои сообщения
Вы не можете голосовать в опросах
Вы не можете прикреплять файлы к сообщениям
Вы не можете скачивать файлы

▼ Вниз