ML
     
  Уважаемый Гость!
Вы можете поддержать проект и зарегистрироваться у наших партнеров - онлайн-стратегия MyLands. При регистрации в игре Вы получите код, который сможете активировать после регистрации на pirat.ca и получить 1000 дублонов.

Ваш код:
ea554e7ed3eacceeae87a8b30a9de3f086c18a84
 
     

Шерлок / Sherlock / Сезон: 1 / Серии: 1-3 (3) (Пол МакГиган / Paul McGuigan, ...) [2010 г., драма, детектив, BDRip, 720p] Dub (Первый канал) + AVO (Ю.Сербин) + Original (Eng) + Sub (Rus, Eng)

Ответить на тему
 
Автор
Сообщение

Пост 04-Янв-2016 15:59

[Q] 

TERMOS

Легенда

-Шерлок / Sherlock
«Лучший сыщик 21-го века»
(1 сезон)
-- Производство: Великобритания
Жанр: драма, детектив
Год выпуска: 2010 г.
Продолжительность: 3x ~01:30:00
Перевод: Профессиональный (полное дублирование) [Первый канал]
Перевод 2: Авторский (одноголосый, закадровый) [Ю.Сербин]
Оригинальный аудиопоток: английский
Режиссер: Пол МакГиган / Paul McGuigan, ...-В ролях: Бенедикт Камбербэтч, Мартин Фриман, Уна Стаббс, Лу Брили, Руперт Грейвз, Зои Телфорд, Vinette Robinson, Марк Гатисс, Таня Муди, Сиобэн Хьюлетт-Описание: События разворачиваются в наши дни. Он прошел Афганистан, остался инвалидом. По возвращению в родные края встречается с загадочным, но своеобразным гениальным человеком. Тот в поиске соседа по квартире. Лондон, 2010 год. Происходят необъяснимые убийства. Скотланд-Ярд без понятия, за что хвататься. Существует лишь один человек, который в силах разрешить проблемы и найти ответы на сложные вопросы.
- - -Качество видео: BDRip
Контейнер: MKV
Стандарт разрешения: 720p
Видео кодек: H.264/AVC
Аудио кодек: AC3
Видео: 1280x720 at 25.000 fps, [email protected], CRF, ~5200 kbps avg
Аудио: Russian: 48 kHz, AC3, 2/0 (L,R) ch, ~192.00 kbps avg |Дубляж, Первый канал|
Аудио #2: Russian: 48 kHz, AC3, 3/2 (L,C,R,l,r) + LFE ch, ~448.00 kbps avg |Одноголосый закадровый, Ю.Сербин|
Аудио #3: English: 48 kHz, AC3, 3/2 (L,C,R,l,r) + LFE ch, ~448.00 kbps avg
Cубтитры: Russian (Forced), English
• Как и в произведениях Артура Конана Дойла, в сериале термин «дедукция» использован неверно. Дедукция — это частный случай умозаключения, переход от общего к частному. Все свои умозаключения Шерлок Холмс делает на индуктивных рассуждениях. Индукция (от латинского “inductio” - наведение) - вид обобщений, связанных с предвосхищением результатов наблюдений и экспериментов на основе данных прошлых лет.
• Квартира Холмса и Ватсона по адресу Бейкер-стрит, 221 Б, снималась на Норт-Гоуэр-стрит, 185 (англ. 185 North Gower Street) в лондонском районе Блумсбери. Для пилотного эпизода некоторые сцены снимались на Бейкер-стрит. Представитель Би-би-си объяснил отказ от съёмок на Бейкер-стрит тем, на этой улице очень плотное автомобильное движение, а также тем, что там очень много предметов и вывесок с надписями «Шерлок Холмс», в частности на доме 221 Б, которые бы пришлось убирать.
• В первой серии «Этюд в розовых тонах» возле одного из трупов была найдена надпись латинскими буквами RACHE, что по-немецки означает «месть». В повести Конан Дойля «Этюд в багровых тонах», где подобная надпись красным обнаружена на стене рядом с трупом, полицейские делают вывод, что речь идёт о женщине по имени Рэйчел (англ. Rachel), тогда как Шерлок Холмс не торопится с этим суждением. В итоге в книге оказывается, что убийца сделал надпись собственной кровью, имея в виду именно немецкое слово «месть». В сериале же эту надпись (причём непонятно большого размера) ногтями на полу делает жертва в последние мгновения жизни, и означает она имя Rachel, хотя полицейские в фильме думали именно о немецком слове.
Episode 1: A Study in Pink / Этюд в розовых тонах
Episode 2: The Blind Banker / Слепой банкир
Episode 3: The Great Game / Великая игра
Код:
General
Unique ID                   : 249286859413457694703723599188278737183 (0xBB8AE71939C46DDEA553FE9A6379791F)
Complete name               : W:\Uploads\Pirat.Ca\Sherlock - Season 01 (2010)[720p.BDRip.Rus.Eng]\Sherlock.2010.S01E01.720p.BluRay.2xRus.Eng.HDCLUB.mkv
Format                      : Matroska
Format version              : Version 2
File size                   : 3.93 GiB
Duration                    : 1h 28mn
Overall bit rate            : 6 384 Kbps
Movie name                  : Sherlock S01E01 (2010) - Release for HDCLUB
Encoded date                : UTC 2010-10-21 08:38:16
Writing application         : mkvmerge v3.4.0 ('Rapunzel') built on May 15 2010 09:38:20
Writing library             : libebml v0.8.0 + libmatroska v0.9.0
Attachements                : Cosmos_Light.ttf
Video
ID                          : 1
Format                      : AVC
Format/Info                 : Advanced Video Codec
Format profile              : [email protected]
Format settings, CABAC      : Yes
Format settings, ReFrames   : 9 frames
Codec ID                    : V_MPEG4/ISO/AVC
Duration                    : 1h 28mn
Bit rate                    : 5 169 Kbps
Width                       : 1 280 pixels
Height                      : 720 pixels
Display aspect ratio        : 16:9
Frame rate mode             : Constant
Frame rate                  : 25.000 fps
Color space                 : YUV
Chroma subsampling          : 4:2:0
Bit depth                   : 8 bits
Scan type                   : Progressive
Bits/(Pixel*Frame)          : 0.224
Stream size                 : 3.18 GiB (81%)
Title                       : Release for HDCLUB
Writing library             : x264 core 104 r1703 cd21d05
Encoding settings           : cabac=1 / ref=9 / deblock=1:-3:-3 / analyse=0x3:0x133 / me=umh / subme=10 / psy=1 / psy_rd=1.00:0.25 / mixed_ref=1 / me_range=24 / chroma_me=1 / trellis=2 / 8x8dct=1 / cqm=0 / deadzone=21,11 / fast_pskip=0 / chroma_qp_offset=-4 / threads=12 / sliced_threads=0 / nr=10 / decimate=0 / interlaced=0 / constrained_intra=0 / bframes=6 / b_pyramid=2 / b_adapt=2 / b_bias=0 / direct=3 / weightb=1 / open_gop=0 / weightp=2 / keyint=250 / keyint_min=25 / scenecut=40 / intra_refresh=0 / rc_lookahead=60 / rc=crf / mbtree=1 / crf=20.0 / qcomp=0.80 / qpmin=10 / qpmax=51 / qpstep=4 / vbv_maxrate=40000 / vbv_bufsize=30000 / crf_max=0.0 / ip_ratio=1.10 / aq=1:1.00 / nal_hrd=none
Language                    : English
Default                     : No
Forced                      : No
Audio #1
ID                          : 2
Format                      : AC-3
Format/Info                 : Audio Coding 3
Mode extension              : CM (complete main)
Format settings, Endianness : Big
Codec ID                    : A_AC3
Duration                    : 1h 28mn
Bit rate mode               : Constant
Bit rate                    : 192 Kbps
Channel(s)                  : 2 channels
Channel positions           : Front: L R
Sampling rate               : 48.0 KHz
Bit depth                   : 16 bits
Compression mode            : Lossy
Stream size                 : 121 MiB (3%)
Title                       : AC3 2.0 @ 192 kbps - Дублированный
Language                    : Russian
Default                     : Yes
Forced                      : No
Audio #2
ID                          : 3
Format                      : AC-3
Format/Info                 : Audio Coding 3
Mode extension              : CM (complete main)
Format settings, Endianness : Big
Codec ID                    : A_AC3
Duration                    : 1h 28mn
Bit rate mode               : Constant
Bit rate                    : 448 Kbps
Channel(s)                  : 6 channels
Channel positions           : Front: L C R, Side: L R, LFE
Sampling rate               : 48.0 KHz
Bit depth                   : 16 bits
Compression mode            : Lossy
Stream size                 : 282 MiB (7%)
Title                       : AC3 5.1 @ 448 kbps - Одноголосый закадровый, Ю.Сербин
Language                    : Russian
Default                     : No
Forced                      : No
Audio #3
ID                          : 4
Format                      : AC-3
Format/Info                 : Audio Coding 3
Mode extension              : CM (complete main)
Format settings, Endianness : Big
Codec ID                    : A_AC3
Duration                    : 1h 28mn
Bit rate mode               : Constant
Bit rate                    : 448 Kbps
Channel(s)                  : 6 channels
Channel positions           : Front: L C R, Side: L R, LFE
Sampling rate               : 48.0 KHz
Bit depth                   : 16 bits
Compression mode            : Lossy
Stream size                 : 282 MiB (7%)
Title                       : AC3 5.1 @ 448 kbps
Language                    : English
Default                     : No
Forced                      : No
Text #1
ID                          : 5
Format                      : UTF-8
Codec ID                    : S_TEXT/UTF8
Codec ID/Info               : UTF-8 Plain Text
Title                       : Forced
Language                    : Russian
Default                     : Yes
Forced                      : Yes
Text #2
ID                          : 6
Format                      : ASS
Codec ID                    : S_TEXT/ASS
Codec ID/Info               : Advanced Sub Station Alpha
Compression mode            : Lossless
Title                       : Styled
Language                    : English
Default                     : No
Forced                      : No
Text #3
ID                          : 7
Format                      : UTF-8
Codec ID                    : S_TEXT/UTF8
Codec ID/Info               : UTF-8 Plain Text
Title                       : Unstyled
Language                    : English
Default                     : No
Forced                      : No
Menu
00:00:00.000                : en:00:00:00.000
00:12:01.440                : en:00:12:01.440
00:23:00.800                : en:00:23:00.800
00:34:36.680                : en:00:34:36.680
00:42:17.480                : en:00:42:17.480
00:55:16.480                : en:00:55:16.480
01:02:57.320                : en:01:02:57.320
01:21:39.120                : en:01:21:39.120
Download / Скачать

Хотите скачать бесплатно? Зарегистрируйтесь на сайте (ссылка на регистрацию). Pirat.ca - самый быстрый торрент трекер в рунете!

Как скачивать  ·   Что такое торрент  ·   Рейтинг и ограничения

shaker113

Штурман

Пост 04-Янв-2016 22:54 (спустя 6 часов)

[Q] 

А где раздача? плиз.
[Профиль]  [ЛС] 

TERMOS ®

Легенда

12014

Пост 04-Янв-2016 23:50 (спустя 55 минут)

[Q] 

shaker113, на месте. Сейчас качают через DHT.

_________________
[Профиль]  [ЛС] 
Показать сообщения:    
Ответить на тему

Текущее время: Сегодня 12:09

Часовой пояс: GMT + 4



Вы не можете начинать темы
Вы не можете отвечать на сообщения
Вы не можете редактировать свои сообщения
Вы не можете удалять свои сообщения
Вы не можете голосовать в опросах
Вы не можете прикреплять файлы к сообщениям
Вы не можете скачивать файлы

▼ Вниз