ML
     
  Уважаемый Гость!
Вы можете поддержать проект и зарегистрироваться у наших партнеров - онлайн-стратегия MyLands. При регистрации в игре Вы получите код, который сможете активировать после регистрации на pirat.ca и получить 1000 дублонов.

Ваш код:
4fbd9898b6f10799a3e8edf60f31febd2bc15453
 
     

Марко Поло / Marco Polo / Сезон: 2 / Серии: 00-10 из 10 (Дэвид Петрарка / David Petrarca, ...) [2014 г., приключения, драма, WEBRip 720p] MVO (AlexFilm) + Original (Eng) [Финал]

Ответить на тему
 
Автор
Сообщение

Пост 04-Янв-2016 19:03

[Q] 

kugesan

-Марко Поло / Marco Polo
«Worlds Will Collide»
-- Производство: США
Жанр: приключения, драма
Год выпуска: 2014 г.-Мировая премьера: 12 декабря 2014, ...-Озвучка: Студия
Перевод: Многоголосый закадровый, профессиональный
Оригинальный аудиопоток: английский-Перевод: Константин Кривоногов
Озвучка: Наталья Ланц, Михаил Суслов и Владимир Курдов
Монтаж и сведение звука: Дмитрий Рыбин
Постер: Андрей Шапал-Режиссер: Дэвид Петрарка / David Petrarca, Алик Сахаров / Alik Sakharov, Хоаким Роннинг / Joachim Roenning, ...-В ролях: Бенедикт Вонг, Оливия Ченг, Джоан Чэнь, Чжу Чжу, Махеш Джаду, Лоренцо Рикельми, Реми Хий, Том Ву, Чин Хань-Описание:
Ещё до того, как ослепнуть, до того, как оказаться на службе у Хубилая, Сотня Глаз узрел то, что превратило его в убийцу, который стал наставником Марко Поло.-Сезон: 2
Серии: 00-10 из 10 серий
Продолжительность: ~ 00:28:00 мин серия-Качество видео: WEBRip 720p
Формат: MKV
Видеокодек: AVC ([email protected])
Аудиокодек: AC-3
Видео: AVC at 2388 Кбит/сек: 1280 x 638 (2.006) at 23.976 fps
Аудио Rus: AC-3 at 192 Кбит/сек: 6 каналов, 48,0 КГц |AlexFilm|
Аудио Eng: AC-3 at 640 Кбит/сек: 6 каналов, 48,0 КГц |Original|
Cубтитры: отсутствуют
- -
00. Странник (The Wayfarer)
01. Охотник и соболя Уивер (Hunter and the Sable Weaver)
02. Объятие (Hug)
03. Мера против опоры (Measure Against the Linchpin)
04. Позвольте начать работу Бога (Let God's Work Begin)
05. Колыбельная (Lullaby)
06. Условия змеи (Serpent's Terms)
07. Потерянный кран (Lost Crane)
08. Уайтхорс (Whitehorse)
09. Наследник (Heirs)
10. Братство (The Fellowship)
-
Общее
Уникальный идентификатор : 211591904207685250920563426120217490545 (0x9F2F1E51738EA3C7AAE56C7E955D7471)
Полное имя : E:\_Сериалы\_Сериалы\Марко Поло\Marco Polo - Season 2 (AlexFilm) WEBRip 720p\Marco.Polo.2014.s01e00.One.Hundred.Eyes.WEBRip.720p.Rus.Eng.AlexFilm.mkv
Формат : Matroska
Версия формата : Version 4 / Version 2
Размер файла : 664 Мбайт
Продолжительность : 28 м.
Общий поток : 3285 Кбит/сек
Название фильма : Marco Polo 2x00 @ AlexFilm
Дата кодирования : UTC 2016-01-03 21:28:20
Программа кодирования : mkvmerge v7.1.0 ('Good Love') 64bit built on Jul 27 2014 13:06:55
Библиотека кодирования : libebml v1.3.0 + libmatroska v1.4.1
Видео
Идентификатор : 1
Формат : AVC
Формат/Информация : Advanced Video Codec
Профиль формата : [email protected]
Параметр CABAC формата : Да
Параметр ReFrames формата : 8 кадров
Идентификатор кодека : V_MPEG4/ISO/AVC
Продолжительность : 28 м.
Битрейт : 2388 Кбит/сек
Ширина : 1280 пикселей
Высота : 638 пикселей
Соотношение сторон : 2,006
Режим частоты кадров : Постоянный
Частота кадров : 23,976 (24000/1001) кадра/сек
Цветовое пространство : YUV
Субдискретизация насыщенности : 4:2:0
Битовая глубина : 8 бит
Тип развёртки : Прогрессивная
Бит/(Пиксели*Кадры) : 0.122
Размер потока : 483 Мбайт (73%)
Заголовок : X264-720
Библиотека кодирования : x264 core 148 r2638 7599210
Настройки программы : cabac=1 / ref=8 / deblock=1:-3:-3 / analyse=0x3:0x133 / me=umh / subme=10 / psy=1 / psy_rd=1.05:0.00 / mixed_ref=1 / me_range=36 /
chroma_me=1 / trellis=2 / 8x8dct=1 / cqm=0 / deadzone=6,6 / fast_pskip=0 / chroma_qp_offset=-2 / threads=12 / lookahead_threads=2 / sliced_threads=0 / nr=0 / decimate=0 /
interlaced=0 / bluray_compat=0 / constrained_intra=0 / bframes=9 / b_pyramid=2 / b_adapt=2 / b_bias=0 / direct=3 / weightb=1 / open_gop=0 / weightp=2 / keyint=250 /
keyint_min=23 / scenecut=40 / intra_refresh=0 / rc=crf / mbtree=0 / crf=18.0 / qcomp=0.80 / qpmin=0 / qpmax=69 / qpstep=4 / ip_ratio=1.10 / pb_ratio=1.10 / aq=3:0.70
Язык : English
Default : Да
Forced : Нет
Аудио #1
Идентификатор : 2
Формат : AC-3
Формат/Информация : Audio Coding 3
Расширение режима : CM (complete main)
Параметр Endianness формата : Big
Идентификатор кодека : A_AC3
Продолжительность : 28 м.
Вид битрейта : Постоянный
Битрейт : 192 Кбит/сек
Каналы : 2 канала
Расположение каналов : Front: L R
Частота : 48,0 КГц
Частота кадров : 31,250 кадров/сек (1536 spf)
Метод сжатия : С потерями
Размер потока : 38,8 Мбайт (6%)
Заголовок : DD2.0 AlexFilm
Язык : Russian
Default : Да
Forced : Нет
Аудио #2
Идентификатор : 3
Формат : AC-3
Формат/Информация : Audio Coding 3
Расширение режима : CM (complete main)
Параметр Endianness формата : Big
Идентификатор кодека : A_AC3
Продолжительность : 28 м.
Вид битрейта : Постоянный
Битрейт : 640 Кбит/сек
Каналы : 6 каналов
Расположение каналов : Front: L C R, Side: L R, LFE
Частота : 48,0 КГц
Частота кадров : 31,250 кадров/сек (1536 spf)
Метод сжатия : С потерями
Размер потока : 129 Мбайт (19%)
Заголовок : DD2.0 Original
Язык : English
Default : Нет
Forced : Нет
-
-Скриншоты:
-
-
Раздача ведётся путём добавления новых серий; при каждом добавлении создаётся новый торрент.
Чтобы начать докачку новой серии, пользователям необходимо сделать следующее:
1. остановить скачивание,
2. удалить старый торрент у себя из клиента (старые серии удалять не надо),
3. скачать новый торрент и запустить его у себя в клиенте вместо старого, при этом указать клиенту путь в старую папку, куда и должно происходить скачивание новых серий.
Ваш клиент при этом должен произвести хеширование (проверку) старой папки (если не производит сам - помогите ему сделать это), и будет докачивать только те серии которых у вас ещё нет. Старые серии при этом не удаляются, а продолжают раздаваться!
Eсли вы уже удалили старые серии, то предотвратить повторную закачку старых серий можно, отжав галочку в соответствующих местах при запуске нового торрента. По возможности, желательно не удалять старые серии как можно дольше, чтобы релизёр не столько продолжал раздавать старые серии, а смог сконцентрироваться на новых.
Совет для тех, кто не хочет ждать перехеширования:
Создайте ещё одну папку рядом с папкой сериала (рядом, а не в ней!!!). Каждую новую серию после удачной загрузки копируйте в новую папку так чтобы ваша основная папка всегда была пуста. Когда ваш новый торрент предложит вам закачать все файлы, выберете только последнюю. Для сидирования же укажите адрес новой папки.
Как закачать отдельный файл из торрента или докачать ранее пропущенные файлы торрента!
-
1. Открыть торрент
2. Снять галки с тех файлов торрента, которые мы не хотим закачивать. Оставляем только на нужных нам файлах (файле).
3. Нажать О.К.
В клиенте utorrent
Инструкция
1) Открыть торрент

2) Снять галки с тех файлов торрента, которые мы не хотим закачивать:
* либо вручную, снимая с каждого файла галку( скрин №1)
* либо, нажав кнопку "Снять метки (Select None)", сняв сразу со всех файлов(скрин №2)
№1

№2

Оставляем только на нужных нам файлах (файле).

3)Нажать О.К
--Добавлена десятая, заключительная, серия второго сезона-Приятного просмотра!!!-
Download / Скачать

Хотите скачать бесплатно? Зарегистрируйтесь на сайте (ссылка на регистрацию). Pirat.ca - самый быстрый торрент трекер в рунете!

Как скачивать  ·   Что такое торрент  ·   Рейтинг и ограничения



Последний раз редактировалось: kugesan (2016-07-11 13:05), всего редактировалось 4 раз(а)

jofrei53

Корсар

Пост 05-Июл-2016 18:06 (спустя 6 месяцев)

[Q] 

Спасибо! Замечательный фильм... Автору респект!!! Супер!
[Профиль]  [ЛС] 

Пост 12-Июл-2016 18:03 (спустя 6 дней)

Топик был перенесен из форума Сериалы в эфире в форум Зарубежные сериалы
erchine
 
Показать сообщения:    
Ответить на тему

Текущее время: Сегодня 19:59

Часовой пояс: GMT + 4



Вы не можете начинать темы
Вы не можете отвечать на сообщения
Вы не можете редактировать свои сообщения
Вы не можете удалять свои сообщения
Вы не можете голосовать в опросах
Вы не можете прикреплять файлы к сообщениям
Вы не можете скачивать файлы

▼ Вниз