ML
     
  Уважаемый Гость!
Вы можете поддержать проект и зарегистрироваться у наших партнеров - онлайн-стратегия MyLands. При регистрации в игре Вы получите код, который сможете активировать после регистрации на pirat.ca и получить 1000 дублонов.

Ваш код:
5af7de75d3db09b6a37bc8bab71b0e87ccde73d6
 
     

Мост / Broen / Bron / Сезон 3 / 10 из 10 серий (Хенрик Георгссон / Henrik Georgsson, ...) [2015 г., триллер, криминал, детектив, ... HDRip] MVO (Amedia) + Original (Eng) [финал сезона]

Ответить на тему
 
Автор
Сообщение

Пост 04-Янв-2016 19:40

[Q] 

kugesan

Мост / Broen / Bron - Русское название: Мост
Оригинальное название: Broen / Bron
Страна: Швеция, Дания, Германия
Год выпуска: 2013
Жанр: триллер, криминал, детектив, ...-Релиз:
Озвучка: |Amedia|
Перевод: Многоголосый закадровый, профессиональный-Режиссер: Хенрик Георгссон / Henrik Georgsson, Румле Хаммерих / Rumle Hammerich, Шарлотта Зилинг / Charlotte Sieling, ...
Актеры: София Хелин, Рафаэль Петтерссон, Даг Малмберг, Сара Боберг, Ким Бодния, Пак Шарбау, Ларс Симонсен, Хенрик Лундстрем, Гэбриел Флорес Жаир, Klas Karterud ...-Описание фильма:
На самой середине Эресуннского моста, связывающего Швецию с Данией, происходит краткое отключение электроэнергии. Появление освещения сопровождается обнаружением незнакомого объекта: тела женщины, обращенного головой к Швеции, ногами — к Дании. Чья полиция должна руководить расследованием убийства подброшенной за несколько минут мертвой женщины?-Премьера (мир): 21 сентября 2011
Премьера (РФ): 24 мая 2013-Сезон: 3
Серии: 10 из 10 серий
Продолжительность: ~ 00:58:00 серия-Качество видео: HDRip
Формат: AVI
Видеокодек: XviD
Аудиокодек: AC-3
Видео: MPEG-4 Visual at 1500 Кбит/сек: 720 x 400 (1.800) at 25.000 fps, 0.21 Бит/Пиксели
Аудио Rus: AC-3 at 192 Кбит/сек, 2 канала, 48,0 КГц |Amedia |
Аудио Eng: AC-3 at 192 Кбит/сек: 2 канала, 48,0 КГц |Original|
- -Сериал "Мост / Broen / Bron" на треке Pirat.ca-
  • Эпизод №1
  • Эпизод №2
  • Эпизод №3
  • Эпизод №4
  • Эпизод №5
  • Эпизод №6
  • Эпизод №7
  • Эпизод №8
  • Эпизод №9
  • Эпизод №10
-
Общее
Полное имя : E:\_Сериалы\The.Bridge.2011.S03.Rus.Eng.HDRip.CasStudio\The.Bridge.2011.S03E01.Rus.Eng.HDRip.CasStudio.avi
Формат : AVI
Формат/Информация : Audio Video Interleave
Размер файла : 791 Мбайт
Продолжительность : 58 м.
Общий поток : 1898 Кбит/сек
Программа кодирования : VirtualDubMod 1.5.10.2 (build 2540/release)
Библиотека кодирования : VirtualDubMod build 2540/release
Видео
Идентификатор : 0
Формат : MPEG-4 Visual
Профиль формата : Advanced [email protected]
Параметр BVOP формата : 2
Параметр QPel формата : Нет
Параметр GMC формата : Без точки перехода
Параметр матрицы формата : Default (MPEG)
Идентификатор кодека : XVID
Идентификатор кодека/Подсказка : XviD
Продолжительность : 58 м.
Битрейт : 1500 Кбит/сек
Ширина : 720 пикселей
Высота : 400 пикселей
Соотношение сторон : 16:9
Частота кадров : 25,000 кадров/сек
Цветовое пространство : YUV
Субдискретизация насыщенности : 4:2:0
Битовая глубина : 8 бит
Тип развёртки : Прогрессивная
Метод сжатия : С потерями
Бит/(Пиксели*Кадры) : 0.208
Размер потока : 625 Мбайт (79%)
Библиотека кодирования : XviD 1.2.0.dev47 (UTC 2006-11-01)
Аудио #1
Идентификатор : 1
Формат : AC-3
Формат/Информация : Audio Coding 3
Расширение режима : CM (complete main)
Параметр Endianness формата : Big
Идентификатор кодека : 2000
Продолжительность : 58 м.
Вид битрейта : Постоянный
Битрейт : 192 Кбит/сек
Каналы : 2 канала
Расположение каналов : Front: L R
Частота : 48,0 КГц
Частота кадров : 31,250 кадров/сек (1536 spf)
Метод сжатия : С потерями
Размер потока : 80,0 Мбайт (10%)
Выравнивание : Разделение по промежуткам
Продолжительность промежутка : 40 мс. (1,00 видеокадр)
Время предзагрузки промежутка : 500 мс.
Аудио #2
Идентификатор : 2
Формат : AC-3
Формат/Информация : Audio Coding 3
Расширение режима : CM (complete main)
Параметр Endianness формата : Big
Идентификатор кодека : 2000
Продолжительность : 58 м.
Вид битрейта : Постоянный
Битрейт : 192 Кбит/сек
Каналы : 2 канала
Расположение каналов : Front: L R
Частота : 48,0 КГц
Частота кадров : 31,250 кадров/сек (1536 spf)
Метод сжатия : С потерями
Размер потока : 80,0 Мбайт (10%)
Выравнивание : Разделение по промежуткам
Продолжительность промежутка : 40 мс. (1,00 видеокадр)
Время предзагрузки промежутка : 500 мс.
-
-Скриншоты:
-
-Добавлена десятая, заключительная, серия второго сезона
Download / Скачать

Хотите скачать бесплатно? Зарегистрируйтесь на сайте (ссылка на регистрацию). Pirat.ca - самый быстрый торрент трекер в рунете!

Как скачивать  ·   Что такое торрент  ·   Рейтинг и ограничения

Пост 05-Янв-2016 18:02 (спустя 22 часа)

Топик был перенесен из форума Сериалы в эфире в форум Зарубежные сериалы
erchine
 

f-serega

Штурман

Пост 07-Янв-2016 00:08 (спустя 2 дня 4 часа)

[Q] 

дайте скорости пожалуйста((( Раздавать будем или как?
[Профиль]  [ЛС] 
Показать сообщения:    
Ответить на тему

Текущее время: Сегодня 14:08

Часовой пояс: GMT + 4



Вы не можете начинать темы
Вы не можете отвечать на сообщения
Вы не можете редактировать свои сообщения
Вы не можете удалять свои сообщения
Вы не можете голосовать в опросах
Вы не можете прикреплять файлы к сообщениям
Вы не можете скачивать файлы

▼ Вниз