ML
     
  Уважаемый Гость!
Вы можете поддержать проект и зарегистрироваться у наших партнеров - онлайн-стратегия MyLands. При регистрации в игре Вы получите код, который сможете активировать после регистрации на pirat.ca и получить 1000 дублонов.

Ваш код:
ca44e9295b9b8527ba1c339c20494f70782efea6
 
     

Бешеные псы / Mad Dogs (US) / Сезон 1 / Серии: 10 из 10 (Чарльз МакДугалл / Charles McDougall ...) [2015г., драма, комедия, криминал, ..., WEB-DLRip] MVO (NewStudio) + Original (Eng) [финал сезона]

Ответить на тему
 
Автор
Сообщение

Пост 11-Янв-2016 00:02

[Q] 

kugesan

Бешеные псы / Mad Dogs (US) - Производство: США
Год выпуска: 2015
Жанр: драма, комедия, криминал, ...-Премьера (мир): 22 января 2016-Озвучка: Студия
Перевод: Многоголосый закадровый, профессиональный
Оригинальный аудиопоток: английский-Перевод: Григорий Сенин
Постер: Vortex-Режиссер: Чарльз МакДугалл / Charles McDougall, Ута Бризвитц / Uta Briesewitz, Джон Дэвид Коулз / John David Coles, ...
В главных ролях: Бен Чаплин, Майкл Империоли, Романи Малко, Стив Зан, Рэйчел Холмс, Мария Ботто, Адриа Теннор ...-Описание фильма:
История о воссоединении четырех сорокалетних приятелей, которые отправляются в Белиз, чтобы навестить их старого школьного друга. Но события принимают неожиданный поворот…-Сезон: 1
Серии: 10 из 10 серий
Продолжительность: ~ 00:41:00 мин серия-Качество видео: WEB-DLRip
Формат: AVI
Видеокодек: XviD
Аудиокодек: Mp3
Видео: MPEG-4 Visual at 1486 Кбит/сек: 720 x 400 (1.800) at 23.976 fps, 0.21 Бит/Пиксели
Аудио Rus: MPEG Audio at 128 Кбит/сек: 2 канала, 48,0 КГц |NewStudio|
Аудио Eng: MPEG Audio at 128 Кбит/сек: 2 канала, 48,0 КГц |Original|
- -
  • Пилот (Pilot )
  • Кстабай (Xtabai)
  • Колодец (Well)
  • Ракеты (Flares)
  • Шляпа (Hat)
  • Лесли (Leslie)
  • Мороженое (Ice Cream)
  • Стадо (Broodstock)
  • Конёк (Seahorse)
  • Иглы (Needles)
-
Общее
Полное имя : E:\_Сериалы\_Сериалы\Бешеные псы (USA)\Mad.Dogs.s01.WEBDLRip.NewStudio.TV\Mad.Dogs.s01e01.WEBDLRip.NewStudio.TV.avi
Формат : AVI
Формат/Информация : Audio Video Interleave
Размер файла : 699 Мбайт
Продолжительность : 55 м.
Общий поток : 1756 Кбит/сек
Программа кодирования : VirtualDubMod 1.5.10.2 (build 2540/release)
Библиотека кодирования : VirtualDubMod build 2540/release
Видео
Идентификатор : 0
Формат : MPEG-4 Visual
Профиль формата : Advanced [email protected]
Параметр BVOP формата : 2
Параметр QPel формата : Нет
Параметр GMC формата : Без точки перехода
Параметр матрицы формата : Default (MPEG)
Идентификатор кодека : XVID
Идентификатор кодека/Подсказка : XviD
Продолжительность : 55 м.
Битрейт : 1486 Кбит/сек
Ширина : 720 пикселей
Высота : 400 пикселей
Соотношение сторон : 16:9
Частота кадров : 23,976 (23976/1000) кадра/сек
Цветовое пространство : YUV
Субдискретизация насыщенности : 4:2:0
Битовая глубина : 8 бит
Тип развёртки : Прогрессивная
Метод сжатия : С потерями
Бит/(Пиксели*Кадры) : 0.215
Размер потока : 592 Мбайт (85%)
Библиотека кодирования : XviD 73
Аудио #1
Идентификатор : 1
Формат : MPEG Audio
Версия формата : Version 1
Профиль формата : Layer 3
Идентификатор кодека : 55
Идентификатор кодека/Подсказка : MP3
Продолжительность : 55 м.
Вид битрейта : Постоянный
Битрейт : 128 Кбит/сек
Каналы : 2 канала
Частота : 48,0 КГц
Метод сжатия : С потерями
Размер потока : 51,0 Мбайт (7%)
Выравнивание : Соединение по промежуткам
Продолжительность промежутка : 42 мс. (1,00 видеокадр)
Время предзагрузки промежутка : 504 мс.
Аудио #2
Идентификатор : 2
Формат : MPEG Audio
Версия формата : Version 1
Профиль формата : Layer 3
Режим : Joint stereo
Идентификатор кодека : 55
Идентификатор кодека/Подсказка : MP3
Продолжительность : 55 м.
Вид битрейта : Постоянный
Битрейт : 128 Кбит/сек
Каналы : 2 канала
Частота : 48,0 КГц
Метод сжатия : С потерями
Размер потока : 51,0 Мбайт (7%)
Выравнивание : Соединение по промежуткам
Продолжительность промежутка : 42 мс. (1,00 видеокадр)
Время предзагрузки промежутка : 504 мс.
Библиотека кодирования : LAME3.99r
Настройки программы : -m j -V 4 -q 2 -lowpass 17 -b 128
-
-Скриншоты:
-
-
Раздача ведётся путём добавления новых серий; при каждом добавлении создаётся новый торрент.
Чтобы начать докачку новой серии, пользователям необходимо сделать следующее:
1. остановить скачивание,
2. удалить старый торрент у себя из клиента (старые серии удалять не надо),
3. скачать новый торрент и запустить его у себя в клиенте вместо старого, при этом указать клиенту путь в старую папку, куда и должно происходить скачивание новых серий.
Ваш клиент при этом должен произвести хеширование (проверку) старой папки (если не производит сам - помогите ему сделать это), и будет докачивать только те серии которых у вас ещё нет. Старые серии при этом не удаляются, а продолжают раздаваться!
Eсли вы уже удалили старые серии, то предотвратить повторную закачку старых серий можно, отжав галочку в соответствующих местах при запуске нового торрента. По возможности, желательно не удалять старые серии как можно дольше, чтобы релизёр не столько продолжал раздавать старые серии, а смог сконцентрироваться на новых.
Совет для тех, кто не хочет ждать перехеширования:
Создайте ещё одну папку рядом с папкой сериала (рядом, а не в ней!!!). Каждую новую серию после удачной загрузки копируйте в новую папку так чтобы ваша основная папка всегда была пуста. Когда ваш новый торрент предложит вам закачать все файлы, выберете только последнюю. Для сидирования же укажите адрес новой папки.
Как закачать отдельный файл из торрента или докачать ранее пропущенные файлы торрента!
-
1. Открыть торрент
2. Снять галки с тех файлов торрента, которые мы не хотим закачивать. Оставляем только на нужных нам файлах (файле).
3. Нажать О.К.
В клиенте utorrent
Инструкция
1) Открыть торрент

2) Снять галки с тех файлов торрента, которые мы не хотим закачивать:
* либо вручную, снимая с каждого файла галку( скрин №1)
* либо, нажав кнопку "Снять метки (Select None)", сняв сразу со всех файлов(скрин №2)
№1

№2

Оставляем только на нужных нам файлах (файле).

3)Нажать О.К
-Добавлена десятая, заключительная, серия первого сезона-
Download / Скачать

Хотите скачать бесплатно? Зарегистрируйтесь на сайте (ссылка на регистрацию). Pirat.ca - самый быстрый торрент трекер в рунете!

Как скачивать  ·   Что такое торрент  ·   Рейтинг и ограничения



Последний раз редактировалось: kugesan (2016-02-05 16:01), всего редактировалось 10 раз(а)

andreiex

Шкипер

Пост 11-Янв-2016 12:35 (спустя 12 часов)

[Q] 

Случайно нашел скрытые скриншоты, методом перелистывания. Тема раскрыта. Одобрямс!
Пока не знаю, то ли подождать окончания сезона, то ли начать следить за новыми сериями. Я люблю за раз сезоны просматривать...
[Профиль]  [ЛС] 

Distortion

Лоцман

Пост 11-Янв-2016 14:54 (спустя 2 часа 19 минут)

[Q] 

Посмотрите на эту дивную традицию переснимать английские сериалы. табличка *сарказм*
[Профиль]  [ЛС] 

andreiex

Шкипер

Пост 12-Янв-2016 18:15 (спустя 1 день 3 часа)

[Q] 

А не подскажете оригинал? Пилот в принципе понравился, но английская версия наверняка лучше (судя по опыту).
Добавлено спустя 5 минут 22 секунды:
Спасибо, уже не надо - товарищ Гугль после пристрастного опроса всё выдал с потрохами.
[Профиль]  [ЛС] 

Slavkovich_

Пост 31-Янв-2016 04:22 (спустя 18 дней)

[Q] 

нормальный сериал, я увлечён, ска....заипца
Добавлено спустя 40 секунд:
и съёмка, ну очень всё красиво!
Добавлено спустя 10 минут 23 секунды:
ржу, не могу
Добавлено спустя 14 минут 58 секунд:
kugesan , спасибо, реально
[Профиль]  [ЛС] 

Rei1

Флибустьер

Пост 31-Янв-2016 15:48 (спустя 11 часов)

[Q] 

728484Случайно нашел скрытые скриншоты, методом перелистывания. Тема раскрыта. Одобрямс!
Пока не знаю, то ли подождать окончания сезона, то ли начать следить за новыми сериями. Я люблю за раз сезоны просматривать...
Я так же люблю под пивко на выходные засесть
[Профиль]  [ЛС] 

kugesan ®

56622

Пост 05-Фев-2016 16:02 (спустя 5 дней)

[Q] 

Добавлена десятая, заключительная, серия первого сезона-

_________________

В мире две бесконечности: вселенная и человеческая глупость - Альберт Эйнштен
«Можно вытащить человека из грязи, но нельзя вытащить грязь из человека»!
[Профиль]  [ЛС] 
Показать сообщения:    
Ответить на тему

Текущее время: Сегодня 16:14

Часовой пояс: GMT + 4



Вы не можете начинать темы
Вы не можете отвечать на сообщения
Вы не можете редактировать свои сообщения
Вы не можете удалять свои сообщения
Вы не можете голосовать в опросах
Вы не можете прикреплять файлы к сообщениям
Вы не можете скачивать файлы

▼ Вниз