ML
     
  Уважаемый Гость!
Вы можете поддержать проект и зарегистрироваться у наших партнеров - онлайн-стратегия MyLands. При регистрации в игре Вы получите код, который сможете активировать после регистрации на pirat.ca и получить 1000 дублонов.

Ваш код:
ea554e7ed3eacceeae87a8b30a9de3f086c18a84
 
     

Шерлок / Sherlock / Сезон: 2 / Серии: 1-3 (3) (Пол МакГиган / Paul McGuigan, ...) [2012 г., триллер, драма, криминал, детектив, BDRip, 720p] Dub (Первый канал) + Original (Eng) + Sub (Rus, Eng)

Ответить на тему
 
Автор
Сообщение

Пост 12-Янв-2016 23:58

[Q] 

TERMOS

Легенда

-Шерлок / Sherlock
«Лучший сыщик 21-го века»
(2 сезон)
-- Производство: Великобритания
Жанр: триллер, драма, криминал, детектив
Год выпуска: 2012 г.
Продолжительность: 3x ~01:30:00
Перевод: Профессиональный (полное дублирование) [Первый канал]
Оригинальный аудиопоток: английский
Режиссер: Пол МакГиган / Paul McGuigan, ...-В ролях: Бенедикт Камбербэтч, Мартин Фриман, Уна Стаббс, Руперт Грейвз, Лу Брили, Марк Гатисс, Эндрю Скотт, Зои Телфорд, Винетт Робинсон, Таня Муди-Описание: События разворачиваются в наши дни. Он прошел Афганистан, остался инвалидом. По возвращению в родные края встречается с загадочным, но своеобразным гениальным человеком. Тот в поиске соседа по квартире. Лондон, 2010 год. Происходят необъяснимые убийства. Скотланд-Ярд без понятия, за что хвататься. Существует лишь один человек, который в силах разрешить проблемы и найти ответы на сложные вопросы.
- - -Качество видео: BDRip
Источник: Sherlock S02 Blu-ray 1080i AVC DD5.1-BluHD
Контейнер: MKV
Стандарт разрешения: 720p
Видео кодек: H.264/AVC
Аудио кодек: AC3
Видео: 1280x720 at 25.000 fps, ~5100-6700 kbps avg
Аудио: Russian: 48 kHz, AC3, 2/0 (L,R) ch, ~192.00 kbps avg |Дубляж, Первый канал|
Аудио #2: English: 48 kHz, AC3, 3/2 (L,C,R,l,r) + LFE ch, ~448.00 kbps avg
Cубтитры: Russian (Doctor_Joker), English
01: A Scandal in Belgravia / Скандал в Белгравии
02: The Hounds of Baskerville / Гончие Баскервиля
03: The Reichenbach Fall / Низвержение Рейхенбаха
Код:
Format                      : Matroska
Format version              : Version 2
File size                   : 3.77 GiB
Duration                    : 1h 29mn
Overall bit rate            : 6 032 Kbps
Movie name                  : Sherlock [Season 2] (2012) - Release for HDCLUB  by doclogan
Encoded date                : UTC 2012-02-05 15:25:01
Writing application         : mkvmerge v5.0.1 ('Es ist Sommer') built on Oct  9 2011 11:55:43
Writing library             : libebml v1.2.2 + libmatroska v1.3.0
Video
ID                          : 1
Format                      : AVC
Format/Info                 : Advanced Video Codec
Format profile              : [email protected]
Format settings, CABAC      : Yes
Format settings, ReFrames   : 8 frames
Codec ID                    : V_MPEG4/ISO/AVC
Duration                    : 1h 29mn
Bit rate                    : 5 080 Kbps
Width                       : 1 280 pixels
Height                      : 720 pixels
Display aspect ratio        : 16:9
Frame rate mode             : Constant
Frame rate                  : 25.000 fps
Color space                 : YUV
Chroma subsampling          : 4:2:0
Bit depth                   : 8 bits
Scan type                   : Progressive
Bits/(Pixel*Frame)          : 0.220
Stream size                 : 3.18 GiB (84%)
Title                       : Release for HDCLUB  by doclogan
Writing library             : x264 core 120 r2146 bcd41db
Encoding settings           : cabac=1 / ref=8 / deblock=1:-2:-2 / analyse=0x3:0x113 / me=umh / subme=11 / psy=1 / psy_rd=1.00:0.05 / mixed_ref=1 / me_range=32 / chroma_me=1 / trellis=2 / 8x8dct=1 / cqm=0 / deadzone=21,11 / fast_pskip=0 / chroma_qp_offset=-4 / threads=6 / sliced_threads=0 / nr=0 / decimate=1 / interlaced=0 / bluray_compat=0 / constrained_intra=0 / bframes=8 / b_pyramid=2 / b_adapt=2 / b_bias=0 / direct=1 / weightb=1 / open_gop=0 / weightp=2 / keyint=250 / keyint_min=23 / scenecut=40 / intra_refresh=0 / rc_lookahead=60 / rc=crf / mbtree=0 / crf=18.0 / qcomp=0.60 / qpmin=0 / qpmax=69 / qpstep=4 / vbv_maxrate=50000 / vbv_bufsize=62500 / crf_max=0.0 / nal_hrd=none / ip_ratio=1.40 / pb_ratio=1.30 / aq=2:0.90
Language                    : English
Default                     : Yes
Forced                      : No
Audio #1
ID                          : 2
Format                      : AC-3
Format/Info                 : Audio Coding 3
Mode extension              : CM (complete main)
Format settings, Endianness : Big
Codec ID                    : A_AC3
Duration                    : 1h 29mn
Bit rate mode               : Constant
Bit rate                    : 192 Kbps
Channel(s)                  : 2 channels
Channel positions           : Front: L R
Sampling rate               : 48.0 KHz
Bit depth                   : 16 bits
Compression mode            : Lossy
Stream size                 : 123 MiB (3%)
Title                       : DD 2.0 @ 192 kbps – Дубляж
Language                    : Russian
Default                     : Yes
Forced                      : No
Audio #2
ID                          : 3
Format                      : AC-3
Format/Info                 : Audio Coding 3
Mode extension              : CM (complete main)
Format settings, Endianness : Big
Codec ID                    : A_AC3
Duration                    : 1h 29mn
Bit rate mode               : Constant
Bit rate                    : 448 Kbps
Channel(s)                  : 6 channels
Channel positions           : Front: L C R, Side: L R, LFE
Sampling rate               : 48.0 KHz
Bit depth                   : 16 bits
Compression mode            : Lossy
Stream size                 : 287 MiB (7%)
Title                       : DD 5.1 @ 448 kbps
Language                    : English
Default                     : No
Forced                      : No
Audio #3
ID                          : 4
Format                      : AC-3
Format/Info                 : Audio Coding 3
Mode extension              : CM (complete main)
Format settings, Endianness : Big
Codec ID                    : A_AC3
Duration                    : 1h 29mn
Bit rate mode               : Constant
Bit rate                    : 192 Kbps
Channel(s)                  : 2 channels
Channel positions           : Front: L R
Sampling rate               : 48.0 KHz
Bit depth                   : 16 bits
Compression mode            : Lossy
Stream size                 : 123 MiB (3%)
Title                       : DD 2.0 @ 192 kbps - Commentary
Language                    : English
Default                     : No
Forced                      : No
Text #1
ID                          : 5
Format                      : UTF-8
Codec ID                    : S_TEXT/UTF8
Codec ID/Info               : UTF-8 Plain Text
Title                       : Doctor_Joker
Language                    : Russian
Default                     : No
Forced                      : No
Text #2
ID                          : 6
Format                      : UTF-8
Codec ID                    : S_TEXT/UTF8
Codec ID/Info               : UTF-8 Plain Text
Language                    : English
Default                     : No
Forced                      : No
Menu
00:00:00.000                : en:00:00:00.000
00:09:15.360                : en:00:09:15.360
00:21:16.920                : en:00:21:16.920
00:32:31.360                : en:00:32:31.360
00:45:19.000                : en:00:45:19.000
00:55:42.760                : en:00:55:42.760
01:03:08.160                : en:01:03:08.160
01:12:30.080                : en:01:12:30.080
Download / Скачать

Хотите скачать бесплатно? Зарегистрируйтесь на сайте (ссылка на регистрацию). Pirat.ca - самый быстрый торрент трекер в рунете!

Как скачивать  ·   Что такое торрент  ·   Рейтинг и ограничения

Пост 13-Янв-2016 10:34 (спустя 10 часов)

Топик был перенесен из форума Зарубежные сериалы (Трюм) в форум Зарубежные сериалы
Андря
 

Kormshikov

Штурман

Пост 13-Янв-2016 17:50 (спустя 17 часов)

[Q] 

Ждем 4 сезон! :D

_________________
Лол
[Профиль]  [ЛС] 

AlAnRu

Мичман

20

Пост 18-Май-2016 07:56 (спустя 4 месяца 4 дня)

[Q] 

Йоу!!! Йохо-хо!!! Эй, вернитесь на раздачу...
[Профиль]  [ЛС] 
Показать сообщения:    
Ответить на тему

Текущее время: Сегодня 12:08

Часовой пояс: GMT + 4



Вы не можете начинать темы
Вы не можете отвечать на сообщения
Вы не можете редактировать свои сообщения
Вы не можете удалять свои сообщения
Вы не можете голосовать в опросах
Вы не можете прикреплять файлы к сообщениям
Вы не можете скачивать файлы

▼ Вниз