ML
     
  Уважаемый Гость!
Вы можете поддержать проект и зарегистрироваться у наших партнеров - онлайн-стратегия MyLands. При регистрации в игре Вы получите код, который сможете активировать после регистрации на pirat.ca и получить 1000 дублонов.

Ваш код:
f612af22ea70acf5cbe90707ac5a076d215f8f7f
 
     

Хроники Шаннары / The Shannara Chronicles / Сезон: 1 / Серии: 1-10 (10) (Брэд Тернер / Brad Turner, ...) [2016 г., фантастика, фэнтези, приключения, WEB-DL, 1080p] MVO (LostFilm) + Original (Eng) + Sub (Rus, Eng)

Ответить на тему
 
Автор
Сообщение

Пост 17-Янв-2016 23:02

[Q] 

TERMOS

Легенда

-Хроники Шаннары / The Shannara Chronicles
(1 сезон)
-- Производство: США
Жанр: фантастика, фэнтези, приключения
Год выпуска: 2016 г.
Продолжительность: 10x ~00:43:00
Перевод: Профессиональный (многоголосый, закадровый) [LostFilm]
Оригинальный аудиопоток: английский
Режиссер: Брэд Тернер / Brad Turner, Джонатан Либесман / Jonathan Liebesman, Джеймс Маршалл / James Marshall, ...-В ролях: Остин Роберт Батлер, Поппи Дрейтон, Ивана Бакеро, Ману Беннетт, Аарон Якубенко, Эмилия Бёрнс, Джон Рис-Дэвис, Маркус Ванко, Брук Уильямс, Дэниэл МакФерсон-Описание: События сериала происходят в далёком будущем. Войны разделили Северную Америку на 4 части. На какой-то из них обитают эльфы, на иной — люди, на третьей — тролли и на четвёртой — дворфы. Основными персонажами сериала окажутся отпрыски древнего рода эльфов — Шаннара. Именно от них будет зависеть будущая судьба планеты…
- -Качество видео: WEB-DL
Контейнер: MKV
Стандарт разрешения: 1080p
Видео кодек: H.264/AVC
Аудио кодек: AC3
Видео: 1916x1076 at 23.976 fps, ~5000 kbps avg
Аудио: Russian: 48 kHz, AC3, 2 ch, ~192.00 kbps avg |Многоголосый закадровый, Lostfilm|
Аудио #2: English: 48 kHz, AC3, 2 ch, ~192.00 kbps avg
Cубтитры: Russian, English
01. Избранный. Часть 1 / Chosen: Part 1
02. Избранный. Часть 2 / Chosen: Part 2
03. Фурия / Fury
04. Перебежчик / Changeling
05. Жнец / Reaper
06. Пикон / Pykon
07. Черта / Breakline
08. Утопия / Utopia
09. Оберег / Safehold
10. Элькрис / Ellcrys
Код:
Format                      : Matroska
Format version              : Version 2
File size                   : 3.08 GiB
Duration                    : 1h 21mn
Overall bit rate            : 5 396 Kbps
Encoded date                : UTC 2016-01-13 18:21:03
Writing application         : mkvmerge v7.9.0 ('Birds') 64bit
Writing library             : libebml v1.3.1 + libmatroska v1.4.2
DURATION                    : 01:19:36.086000000
NUMBER_OF_FRAMES            : 956
NUMBER_OF_BYTES             : 27764
_STATISTICS_WRITING_APP     : mkvmerge v7.9.0 ('Birds') 64bit
_STATISTICS_WRITING_DATE_UT : 2016-01-13 18:21:03
_STATISTICS_TAGS            : BPS DURATION NUMBER_OF_FRAMES NUMBER_OF_BYTES
Video
ID                          : 1
Format                      : AVC
Format/Info                 : Advanced Video Codec
Format profile              : [email protected]
Format settings, CABAC      : Yes
Format settings, ReFrames   : 4 frames
Codec ID                    : V_MPEG4/ISO/AVC
Duration                    : 1h 21mn
Bit rate                    : 4 905 Kbps
Width                       : 1 916 pixels
Height                      : 1 076 pixels
Display aspect ratio        : 16:9
Frame rate mode             : Constant
Frame rate                  : 23.976 fps
Color space                 : YUV
Chroma subsampling          : 4:2:0
Bit depth                   : 8 bits
Scan type                   : Progressive
Bits/(Pixel*Frame)          : 0.099
Stream size                 : 2.80 GiB (91%)
Language                    : English
Default                     : Yes
Forced                      : No
Color primaries             : BT.709
Transfer characteristics    : BT.709
Matrix coefficients         : BT.709
Color range                 : Limited
Audio #1
ID                          : 2
Format                      : AC-3
Format/Info                 : Audio Coding 3
Mode extension              : CM (complete main)
Format settings, Endianness : Big
Codec ID                    : A_AC3
Duration                    : 1h 21mn
Bit rate mode               : Constant
Bit rate                    : 192 Kbps
Channel(s)                  : 2 channels
Channel positions           : Front: L R
Sampling rate               : 48.0 KHz
Bit depth                   : 16 bits
Compression mode            : Lossy
Delay relative to video     : 23ms
Stream size                 : 112 MiB (4%)
Language                    : Russian
Default                     : Yes
Forced                      : No
Audio #2
ID                          : 3
Format                      : AC-3
Format/Info                 : Audio Coding 3
Mode extension              : CM (complete main)
Format settings, Endianness : Big
Codec ID                    : A_AC3
Duration                    : 1h 21mn
Bit rate mode               : Constant
Bit rate                    : 192 Kbps
Channel(s)                  : 2 channels
Channel positions           : Front: L R
Sampling rate               : 48.0 KHz
Bit depth                   : 16 bits
Compression mode            : Lossy
Delay relative to video     : 23ms
Stream size                 : 112 MiB (4%)
Language                    : English
Default                     : No
Forced                      : No
Text #1
ID                          : 4
Format                      : UTF-8
Codec ID                    : S_TEXT/UTF8
Codec ID/Info               : UTF-8 Plain Text
Language                    : Russian
Default                     : No
Forced                      : No
Text #2
ID                          : 5
Format                      : UTF-8
Codec ID                    : S_TEXT/UTF8
Codec ID/Info               : UTF-8 Plain Text
Language                    : English
Default                     : No
Forced                      : No
Download / Скачать

Хотите скачать бесплатно? Зарегистрируйтесь на сайте (ссылка на регистрацию). Pirat.ca - самый быстрый торрент трекер в рунете!

Как скачивать  ·   Что такое торрент  ·   Рейтинг и ограничения



Последний раз редактировалось: TERMOS (2016-03-04 18:27), всего редактировалось 7 раз(а)

Пост 18-Янв-2016 18:52 (спустя 19 часов)

Топик был перенесен из форума Зарубежные сериалы (Трюм) в форум Сериалы в эфире
erchine
 

TERMOS ®

Легенда

12068

Пост 19-Янв-2016 14:53 (спустя 1 день 15 часов)

[Q] 

Добавлена 4-я серия. Обновите торрент-файл!

_________________
[Профиль]  [ЛС] 

TERMOS ®

Легенда

12068

Пост 30-Янв-2016 06:20 (спустя 10 дней)

[Q] 

Добавлена 5-я серия. Обновите торрент-файл!

_________________
[Профиль]  [ЛС] 

TERMOS ®

Легенда

12068

Пост 05-Фев-2016 20:25 (спустя 6 дней)

[Q] 

Добавлена 6-я серия. Обновите торрент-файл!

_________________
[Профиль]  [ЛС] 

Jafar

Шкипер

Пост 06-Фев-2016 00:26 (спустя 4 часа)

[Q] 

Сериал снят по книге ,,Потомки Шаннары,, это большой цикл книг Хроники Шаннары. Да да кроме ,, игры престолов,, есть и другие не менее хорошие романы, просто не распиаренные. Приятная тенденция пошла снимают сериалы по хорошим книгам, так глядишь и до Роберта Джордона доберутся. =)
[Профиль]  [ЛС] 

Seifer_Almasy

Корсар

Пост 06-Фев-2016 17:22 (спустя 16 часов)

[Q] 

Скриншот с грузовиком позабавил.
За несколько столетий или тысячелетий после войны колёса на грузовике очень хорошо сохранились. Резина так чуть ли не блестит.
А книги шикарны. Прочитал почти все. После потомков Шаннары не читал.. :( Надо будет поискать где бы их скачать.
[Профиль]  [ЛС] 

TERMOS ®

Легенда

12068

Пост 12-Фев-2016 05:59 (спустя 5 дней)

[Q] 

Добавлена 7-я серия. Обновите торрент-файл!

_________________
[Профиль]  [ЛС] 

Ya Fratkin

Морской Волк

Пост 14-Фев-2016 22:21 (спустя 2 дня 16 часов)

[Q] 

Спасибо! Лови бочку
[Профиль]  [ЛС] 

TERMOS ®

Легенда

12068

Пост 20-Фев-2016 23:11 (спустя 6 дней)

[Q] 

Добавлена 8-я серия. Обновите торрент-файл!

_________________
[Профиль]  [ЛС] 

Yuriy2110

Пост 21-Фев-2016 14:01 (спустя 14 часов)

[Q] 

Дождусь последние две серии сезона и разом посмотрю.
[Профиль]  [ЛС] 

TERMOS ®

Легенда

12068

Пост 26-Фев-2016 16:27 (спустя 5 дней)

[Q] 

Добавлена 9-я серия. Обновите торрент-файл!

_________________
[Профиль]  [ЛС] 

TERMOS ®

Легенда

12068

Пост 04-Мар-2016 18:28 (спустя 7 дней)

[Q] 

Пропер на 6-ю серию + добавлена 10-я серия. Финал сезона! Обновите торрент-файл!

_________________
[Профиль]  [ЛС] 

Пост 04-Мар-2016 19:45 (спустя 1 час 16 минут)

Топик был перенесен из форума Сериалы в эфире в форум Зарубежные сериалы
Андря
 
Показать сообщения:    
Ответить на тему

Текущее время: Сегодня 00:23

Часовой пояс: GMT + 4



Вы не можете начинать темы
Вы не можете отвечать на сообщения
Вы не можете редактировать свои сообщения
Вы не можете удалять свои сообщения
Вы не можете голосовать в опросах
Вы не можете прикреплять файлы к сообщениям
Вы не можете скачивать файлы

▼ Вниз