ML
     
  Уважаемый Гость!
Вы можете поддержать проект и зарегистрироваться у наших партнеров - онлайн-стратегия MyLands. При регистрации в игре Вы получите код, который сможете активировать после регистрации на pirat.ca и получить 1000 дублонов.

Ваш код:
ca44e9295b9b8527ba1c339c20494f70782efea6
 
     

Библиотекари / The Librarians / Сезон: 2 / Серии: 1-10 (10) (Марк Роскин / Marc Roskin, ...) [2015 г., приключения, WEB-DL, 720p] MVO (LostFilm, BaibaKo) + Original (Eng) + Sub (Eng)

Ответить на тему
 
Автор
Сообщение

Пост 18-Янв-2016 18:06

[Q] 

TERMOS

Легенда

-Библиотекари / The Librarians
«Filing evil under history»
(2 сезон)
-- Производство: США
Жанр: приключения
Год выпуска: 2015 г.
Продолжительность: 10x ~00:43:00
Перевод: Профессиональный (многоголосый, закадровый) [LostFilm]
Перевод 2: Профессиональный (многоголосый, закадровый) [BaibaKo]
Режиссер: Марк Роскин / Marc Roskin, Джонатан Фрейкс / Jonathan Frakes, Дин Девлин / Dean Devlin, ...-В ролях: Ребекка Ромейн, Кристиан Кэйн, Линди Бут, Джон Ким, Джон Ларрокетт, Лесли-Энн Брандт, Ноа Уайли, Мэтт Фрюэр, Боб Ньюхарт, Джейн Куртин-Описание: Группа библиотекарей отправляется в путешествие, чтобы спасти загадочные древние артефакты.
- - -Качество видео: WEB-DL
Контейнер: MKV
Стандарт разрешения: 720p
Видео кодек: H.264/AVC
Аудио кодек: AC3
Видео: 1280x716 at 23.976 fps, ~4000 kbps avg
Аудио: Russian: 48 kHz, AC3, 3/2 (L,C,R,l,r) + LFE ch, ~384.00 kbps avg |Многоголосый закадровый, LostFilm|
Аудио #2: Ukrainian: 48 kHz, AC3, 3/2 (L,C,R,l,r) + LFE ch, ~384.00 kbps avg |Многоголосый закадровый, BaibaKo|
Аудио #3: English: 48 kHz, AC3, 3/2 (L,C,R,l,r) + LFE ch, ~384.00 kbps avg
Cубтитры: английские
01. And the Drowned Book / И утопленная книга
02. And the Broken Staff / И Сломаный Посох
03. And What Lies Beneath the Stones / И то, что сокрыто под камнями
04. And the Cost of Education / И цена образования
05. And the Hollow Men / И полые люди
06. And the Infernal Contract / И адский контракт
07. And the Image of Image / И изображение личности
08. And the Point of Salvation / И точка спасения
09. And the Happily Ever Afters / И счастливый конец
10. And the Final Curtain / И финальный занавес
Код:
Format                      : Matroska
Format version              : Version 4 / Version 2
File size                   : 1.52 GiB
Duration                    : 42mn 15s
Overall bit rate            : 5 155 Kbps
Movie name                  : The Librarians (2015) - Release for HDCLUB
Encoded date                : UTC 2016-01-17 18:20:49
Writing application         : mkvmerge v6.2.0 ('Promised Land') built on Apr 28 2013 12:22:01
Writing library             : libebml v1.3.0 + libmatroska v1.4.0
Video
ID                          : 1
Format                      : AVC
Format/Info                 : Advanced Video Codec
Format profile              : [email protected]
Format settings, CABAC      : No
Format settings, ReFrames   : 2 frames
Codec ID                    : V_MPEG4/ISO/AVC
Duration                    : 42mn 15s
Bit rate                    : 3 901 Kbps
Width                       : 1 280 pixels
Height                      : 716 pixels
Display aspect ratio        : 16:9
Frame rate mode             : Constant
Frame rate                  : 23.976 fps
Color space                 : YUV
Chroma subsampling          : 4:2:0
Bit depth                   : 8 bits
Scan type                   : Progressive
Bits/(Pixel*Frame)          : 0.178
Stream size                 : 1.15 GiB (76%)
Language                    : English
Default                     : Yes
Forced                      : No
Color primaries             : BT.709
Transfer characteristics    : BT.709
Matrix coefficients         : BT.709
Color range                 : Limited
Audio #1
ID                          : 2
Format                      : AC-3
Format/Info                 : Audio Coding 3
Mode extension              : CM (complete main)
Format settings, Endianness : Big
Codec ID                    : A_AC3
Duration                    : 42mn 15s
Bit rate mode               : Constant
Bit rate                    : 384 Kbps
Channel(s)                  : 6 channels
Channel positions           : Front: L C R, Side: L R, LFE
Sampling rate               : 48.0 KHz
Bit depth                   : 16 bits
Compression mode            : Lossy
Stream size                 : 116 MiB (7%)
Title                       : LostFilm
Language                    : Russian
Default                     : Yes
Forced                      : No
Audio #2
ID                          : 3
Format                      : AC-3
Format/Info                 : Audio Coding 3
Mode extension              : CM (complete main)
Format settings, Endianness : Big
Codec ID                    : A_AC3
Duration                    : 42mn 15s
Bit rate mode               : Constant
Bit rate                    : 384 Kbps
Channel(s)                  : 6 channels
Channel positions           : Front: L C R, Side: L R, LFE
Sampling rate               : 48.0 KHz
Bit depth                   : 16 bits
Compression mode            : Lossy
Stream size                 : 116 MiB (7%)
Title                       : BaibaKo
Language                    : Ukrainian
Default                     : No
Forced                      : No
Audio #3
ID                          : 4
Format                      : AC-3
Format/Info                 : Audio Coding 3
Mode extension              : CM (complete main)
Format settings, Endianness : Big
Codec ID                    : A_AC3
Duration                    : 42mn 15s
Bit rate mode               : Constant
Bit rate                    : 384 Kbps
Channel(s)                  : 6 channels
Channel positions           : Front: L C R, Side: L R, LFE
Sampling rate               : 48.0 KHz
Bit depth                   : 16 bits
Compression mode            : Lossy
Stream size                 : 116 MiB (7%)
Language                    : English
Default                     : No
Forced                      : No
Text
ID                          : 5
Format                      : UTF-8
Codec ID                    : S_TEXT/UTF8
Codec ID/Info               : UTF-8 Plain Text
Language                    : English
Default                     : No
Forced                      : No
Download / Скачать

Хотите скачать бесплатно? Зарегистрируйтесь на сайте (ссылка на регистрацию). Pirat.ca - самый быстрый торрент трекер в рунете!

Как скачивать  ·   Что такое торрент  ·   Рейтинг и ограничения

Пост 18-Янв-2016 19:00 (спустя 53 минуты)

Топик был перенесен из форума Зарубежные сериалы (Трюм) в форум Зарубежные сериалы
erchine
 
Показать сообщения:    
Ответить на тему

Текущее время: Сегодня 16:14

Часовой пояс: GMT + 4



Вы не можете начинать темы
Вы не можете отвечать на сообщения
Вы не можете редактировать свои сообщения
Вы не можете удалять свои сообщения
Вы не можете голосовать в опросах
Вы не можете прикреплять файлы к сообщениям
Вы не можете скачивать файлы

▼ Вниз