ML
     
  Уважаемый Гость!
Вы можете поддержать проект и зарегистрироваться у наших партнеров - онлайн-стратегия MyLands. При регистрации в игре Вы получите код, который сможете активировать после регистрации на pirat.ca и получить 1000 дублонов.

Ваш код:
500cb7bd8d2cec9a8aba647a87ce41c4b76f06bd
 
     

Десятое королевство / The 10th Kingdom / Сезон: 1 / Серии: 1-5 из 5 (Дэвид Карсон / David Carson, Херберт Уайз / Herbert Wise) [2000, фэнтези, комедия, приключения, семейный, BDRip 720p] MVO (CP-Digital) + Original Eng + Sub Rus, Eng

Ответить на тему
 
Автор
Сообщение

Пост 19-Янв-2016 14:00

[Q] 

Region-89

Гроза морей

-Десятое королевство / The 10th Kingdom
(1-5 серии из 5)
«Невероятные фантастические путешествия в параллельных мирах»
--
Производство: Великобритания, Германия, США
Жанр: фэнтези, комедия, приключения, семейный
Год выпуска: 2000 г.
Продолжительность: 01:29:28
Мировая премьера: 27 февраля 2000
Дата выхода DVD: 28 июля 2005
Перевод: Профессиональный (многоголосый, закадровый) [CP-Digital]
Режиссер: Дэвид Карсон / David Carson, Херберт Уайз / Herbert Wise
Сценарий: Саймон Мур
Оператор: Крис Ховард, Лоуренс Джонс
Композитор: Энн Дадли-В ролях: Кимберли Уильямс-Пэйсли, Скотт Коэн, Джон Ларрокетт, Дайэнн Уист, Дэниэл Лапэйн, Эд О’Нил, Рутгер Хауэр, Доун Льюис, Хью О’Горман, Джереми Биркетт...
-
Официантка нью-йоркского кафе Вирджиния однажды спасает песика, который оказывается заколдованным принцем Венделом, сбежавшим из Страны Девяти Королевств в наш мир, спасаясь от злой Королевы-Мачехи. Принц приходится внуком Белоснежке и является прямым наследником трона, но у Королевы свои планы.
Она посылает уродливых и злых троллей убить принца, и они тоже перебираются в наш мир… Так, неожиданно для себя, обычная современная девушка Вирджиния оказывается в самом центре невероятных фантастических событий.
-
Качество видео: BDRip 720p
Контейнер: MKV
Стандарт разрешения: 720p
Видео кодек: x264
Аудио кодек: AC3
Видео: 1280x720 (16:9), MPEG4/ISO/AVC, 23.976 fps, AVC, ~5043 Kbps, 0.228 bits/pixel
Формат DVD: NTSC
Аудио #1: Russian, 48.0 KHz, AC3, 2 ch, 192 Kbps - CP-Digital
Аудио #2: English, 48.0 KHz, AC3, 2 ch, 192 Kbps
Cубтитры: русские, английские
https://ru.wikipedia.org/wiki/Десятое_королевство
BDRip найдены в сети. Синхронизация звука - Dreven.
бюджет $44 000 000
General
Unique ID : 214790448563000763287408166335693363437 (0xA19722BAFAD28DE5AEC02164104298ED)
Complete name : D:\The 10th Kingdom - BDRip 720p\1.The 10th Kingdom.mkv
Format : Matroska
Format version : Version 4 / Version 2
File size : 3.39 GiB
Duration : 1h 29mn
Overall bit rate : 5 427 Kbps
Encoded date : UTC 2016-01-18 06:52:03
Writing application : mkvmerge v8.8.0 ('Wind at my back') 64bit
Writing library : libebml v1.3.3 + libmatroska v1.4.4
DURATION : 01:26:59.170000000
NUMBER_OF_FRAMES : 905
NUMBER_OF_BYTES : 62734
_STATISTICS_WRITING_APP : mkvmerge v8.8.0 ('Wind at my back') 64bit
_STATISTICS_WRITING_DATE_UT : 2016-01-18 06:52:03
_STATISTICS_TAGS : BPS DURATION NUMBER_OF_FRAMES NUMBER_OF_BYTES
Video
ID : 1
Format : AVC
Format/Info : Advanced Video Codec
Format profile : [email protected]
Format settings, CABAC : Yes
Format settings, ReFrames : 5 frames
Codec ID : V_MPEG4/ISO/AVC
Duration : 1h 29mn
Bit rate : 5 043 Kbps
Width : 1 280 pixels
Height : 720 pixels
Display aspect ratio : 16:9
Frame rate mode : Constant
Frame rate : 23.976 fps
Color space : YUV
Chroma subsampling : 4:2:0
Bit depth : 8 bits
Scan type : Progressive
Bits/(Pixel*Frame) : 0.228
Stream size : 3.08 GiB (91%)
Writing library : x264 core 148 r2638 7599210
Encoding settings : cabac=1 / ref=5 / deblock=1:0:0 / analyse=0x3:0x113 / me=umh / subme=8 / psy=1 / psy_rd=1.00:0.00 / mixed_ref=1 / me_range=16 / chroma_me=1 / trellis=1 / 8x8dct=1 / cqm=0 / deadzone=21,11 / fast_pskip=1 / chroma_qp_offset=-2 / threads=12 / lookahead_threads=2 / sliced_threads=0 / nr=0 / decimate=1 / interlaced=0 / bluray_compat=0 / constrained_intra=0 / bframes=3 / b_pyramid=2 / b_adapt=2 / b_bias=0 / direct=3 / weightb=1 / open_gop=0 / weightp=2 / keyint=240 / keyint_min=23 / scenecut=40 / intra_refresh=0 / rc_lookahead=50 / rc=2pass / mbtree=1 / bitrate=5043 / ratetol=1.0 / qcomp=0.60 / qpmin=0 / qpmax=69 / qpstep=4 / cplxblur=20.0 / qblur=0.5 / ip_ratio=1.40 / aq=1:1.00
Language : English
Default : Yes
Forced : No
DURATION : 01:29:28.488000000
NUMBER_OF_FRAMES : 128715
NUMBER_OF_BYTES : 3382725486
_STATISTICS_WRITING_APP : mkvmerge v8.8.0 ('Wind at my back') 64bit
_STATISTICS_WRITING_DATE_UT : 2016-01-18 06:52:03
_STATISTICS_TAGS : BPS DURATION NUMBER_OF_FRAMES NUMBER_OF_BYTES
Audio #1
ID : 2
Format : AC-3
Format/Info : Audio Coding 3
Mode extension : CM (complete main)
Format settings, Endianness : Big
Codec ID : A_AC3
Duration : 1h 29mn
Bit rate mode : Constant
Bit rate : 192 Kbps
Channel(s) : 2 channels
Channel positions : Front: L R
Sampling rate : 48.0 KHz
Compression mode : Lossy
Stream size : 123 MiB (4%)
Title : CP-Digital
Language : Russian
Default : Yes
Forced : No
Audio #2
ID : 3
Format : AC-3
Format/Info : Audio Coding 3
Mode extension : CM (complete main)
Format settings, Endianness : Big
Codec ID : A_AC3
Duration : 1h 29mn
Bit rate mode : Constant
Bit rate : 192 Kbps
Channel(s) : 2 channels
Channel positions : Front: L R
Sampling rate : 48.0 KHz
Compression mode : Lossy
Stream size : 123 MiB (4%)
Language : English
Default : No
Forced : No
Text #1
ID : 4
Format : UTF-8
Codec ID : S_TEXT/UTF8
Codec ID/Info : UTF-8 Plain Text
Language : Russian
Default : No
Forced : No
Text #2
ID : 5
Format : UTF-8
Codec ID : S_TEXT/UTF8
Codec ID/Info : UTF-8 Plain Text
Language : English
Default : No
Forced : No
x264 core 148 r2638 7599210
********
Download / Скачать

Хотите скачать бесплатно? Зарегистрируйтесь на сайте (ссылка на регистрацию). Pirat.ca - самый быстрый торрент трекер в рунете!

Как скачивать  ·   Что такое торрент  ·   Рейтинг и ограничения

Пост 19-Янв-2016 16:21 (спустя 2 часа 21 минута)

Топик был перенесен из форума Зарубежные сериалы (Трюм) в форум Зарубежные сериалы
Андря
 

Syler

Шкипер

Пост 19-Янв-2016 20:45 (спустя 6 часов)

[Q] 

Огромное спасибо, раздающему просто респектище. Обожаю этот сериал, а песня в заставке просто сказка. Автору респект!!!
[Профиль]  [ЛС] 

Region-89 ®

Гроза морей

550

Пост 19-Янв-2016 21:41 (спустя 55 минут)

[Q] 

Syler, благодарю! handshake

_________________
[Профиль]  [ЛС] 

SHERHAN

683

Пост 19-Янв-2016 22:34 (спустя 53 минуты)

[Q] 

Скорость как у черепахи

_________________
Рыжий хищник, полосатый,
В меру наглый и усатый,
Днём и ночью он не спит,
Зорко в монитор глядит!
[Профиль]  [ЛС] 

Region-89 ®

Гроза морей

550

Пост 20-Янв-2016 02:55 (спустя 4 часа)

[Q] 

730074 Скорость как у черепахи
РосТелеКом затупил! пошол звонить в тех. поддержку! (выяснять чё за "байда!") cw

_________________
[Профиль]  [ЛС] 
Показать сообщения:    
Ответить на тему

Текущее время: Сегодня 01:43

Часовой пояс: GMT + 4



Вы не можете начинать темы
Вы не можете отвечать на сообщения
Вы не можете редактировать свои сообщения
Вы не можете удалять свои сообщения
Вы не можете голосовать в опросах
Вы не можете прикреплять файлы к сообщениям
Вы не можете скачивать файлы

▼ Вниз