ML
     
  Уважаемый Гость!
Вы можете поддержать проект и зарегистрироваться у наших партнеров - онлайн-стратегия MyLands. При регистрации в игре Вы получите код, который сможете активировать после регистрации на pirat.ca и получить 1000 дублонов.

Ваш код:
fcd618d94adc1456bccbde5047c9cd0930e4ae4d
 
     

Библиотекари / The Librarians / Сезон: 2 / Серии: 1-10 (10) (Марк Роскин / Marc Roskin, ...) [2015 г., фантастика, приключения, ..., WEB-DLRip] MVO (LostFilm, BaibaKo) + Original (Eng) [финал сезона]

Ответить на тему
 
Автор
Сообщение

Пост 21-Янв-2016 13:42

[Q] 

kugesan

Библиотекари / The Librarians
«Filing evil under history»
- Русское название: Библиотекари
Оригинальное название: The Librarians
Страна: США
Год выпуска: 2015
Жанр: фантастика, приключения-Озвучка:
Дорожка №1 - Студия
Дорожка №2 - Студия
Дорожка №3 - Оригинальный аудиопоток (английский)
Перевод: Многоголосый закадровый, профессиональный-Режиссер: Дин Девлин / Dean Devlin, Джонатан Фрейкс / Jonathan Frakes
Актеры: Ноа Уайли (Флинн Карсен), Ребекка Ромейн (Ив Бэрд), Кристиан Кэйн (Джейк Стоун), Линди Бут (Кассандра Киллиан), Джон Ким (Эзекиль Джонс), Джон Ларрокетт (Дженкинс), Мэтт Фрюэр (Дюлак), Боб Ньюхарт (Джадсон), Джейн Кертин (Шарлин) ...-Описание фильма:
Действие разворачивается в Нью-Йорке, где под зданием обычной публичной библиотеки располагается штаб-квартира таинственного ордена. Главный хранитель Флинн Карсен (Ноа Уайли) возглавляет эту организацию уже десять лет. Его задача — защищать сверхъестественные артефакты (Копье судьбы, Ковчег завета, Эскалибур и другие) от врагов, в том числе от невероятно опасного Змеиного Братства. Оно давно мечтает заполучить ценные реликвии, чтобы использовать их магию в своих целях, а Флинн не справляется в одиночку. Тогда к нему на помощь приходит агент по борьбе с терроризмом Ив Бэрд (Ребекка Ромейн). Вместе они подбирают трех других кандидатов на пост верховного библиотекаря. Так, к команде присоединяется Джейк Стоун (Кристиан Кэйн) — работник нефтяной вышки с IQ 190 и энциклопедическими знаниями в области истории искусств. Вместе с ним на защиту артефактов встает Кассандра Киллиан (Линди Бут) — гений математики с фотографической памятью и способностью создавать визуальные и сенсорные галлюцинации. И, наконец, третьим кандидатом становится Эзекиль Джонс (Джон Ким) — специалист по современным технологиям и вор высшего класса. Вместе они должны найти украденные артефакты и нарушить коварные планы Змеиного Братства.-Премьера (мир): 7 декабря 2014, ...-Сезон: 2
Серии: 10 из 10 серий
Продолжительность: ~ 00:42:00 серия-
Качество видео: WEB-DLRip
Контейнер: AVI
Видео кодек: XviD
Аудио кодек: AC-3
Видео: MPEG-4 Visual at 1500 Кбит/сек: 720 x 400 (1.800) at 23.976 fps, 0.22 Бит/Пиксели
Аудио Rus: AC-3 at 192 Кбит/сек: 2 канала, 48,0 КГц |LostFilm|
Аудио Rus: AC-3 at 192 Кбит/сек: 2 канала, 48,0 КГц |BaibaKo|
Аудио Eng: AC-3 at 192 Кбит/сек: 2 канала, 48,0 КГц |Original|
Cубтитры: отсутствуют
- -
  • Библиотекари и затонувшая книга (And the Drowned Book)
  • Библиотекари и сломанный посох (And the Broken Staff)
  • Библиотекари и что скрывается под камнями (And What Lies Beneath the Stones)
  • Библиотекари и цена образования (And the Cost of Education)
  • Библиотекари и Пустые люди (And the Hollow Men )
  • Библиотекари и сделка с дьяволом (And the Infernal Contract )
  • Библиотекари и изображение изображения (And the Image of Image )
  • Библиотекари и точки сохранения (And the Point of Salvation)
  • Библиотекари и счастливые концовки (And the Happily Ever Afters)
  • Библиотекари и последний занавес (And the Final Curtain)
-
Общее
Полное имя : E:\_Сериалы\_Сериалы\Библиотекари\The.Librarians.s02.WEB-DLRip.2xRus.Eng\The.Librarians.s02e01.WEB-DLRip.2xRus.Eng.avi
Формат : AVI
Формат/Информация : Audio Video Interleave
Размер файла : 633 Мбайт
Продолжительность : 42 м.
Общий поток : 2095 Кбит/сек
Программа кодирования : VirtualDubMod 1.5.10.2 (build 2540/release)
Библиотека кодирования : VirtualDubMod build 2540/release
Видео
Идентификатор : 0
Формат : MPEG-4 Visual
Профиль формата : Advanced [email protected]
Параметр BVOP формата : 2
Параметр QPel формата : Нет
Параметр GMC формата : Без точки перехода
Параметр матрицы формата : Default (MPEG)
Идентификатор кодека : XVID
Идентификатор кодека/Подсказка : XviD
Продолжительность : 42 м.
Битрейт : 1500 Кбит/сек
Ширина : 720 пикселей
Высота : 400 пикселей
Соотношение сторон : 16:9
Частота кадров : 23,976 (23976/1000) кадра/сек
Цветовое пространство : YUV
Субдискретизация насыщенности : 4:2:0
Битовая глубина : 8 бит
Тип развёртки : Прогрессивная
Метод сжатия : С потерями
Бит/(Пиксели*Кадры) : 0.217
Размер потока : 453 Мбайт (72%)
Библиотека кодирования : XviD 1.2.0.dev47 (UTC 2006-11-01)
Аудио #1
Идентификатор : 1
Формат : AC-3
Формат/Информация : Audio Coding 3
Расширение режима : CM (complete main)
Параметр Endianness формата : Big
Идентификатор кодека : 2000
Продолжительность : 42 м.
Вид битрейта : Постоянный
Битрейт : 192 Кбит/сек
Каналы : 2 канала
Расположение каналов : Front: L R
Частота : 48,0 КГц
Частота кадров : 31,250 кадров/сек (1536 spf)
Метод сжатия : С потерями
Размер потока : 58,0 Мбайт (9%)
Выравнивание : Разделение по промежуткам
Продолжительность промежутка : 42 мс. (1,00 видеокадр)
Время предзагрузки промежутка : 500 мс.
Аудио #2
Идентификатор : 2
Формат : AC-3
Формат/Информация : Audio Coding 3
Расширение режима : CM (complete main)
Параметр Endianness формата : Big
Идентификатор кодека : 2000
Продолжительность : 42 м.
Вид битрейта : Постоянный
Битрейт : 192 Кбит/сек
Каналы : 2 канала
Расположение каналов : Front: L R
Частота : 48,0 КГц
Частота кадров : 31,250 кадров/сек (1536 spf)
Метод сжатия : С потерями
Размер потока : 58,0 Мбайт (9%)
Выравнивание : Разделение по промежуткам
Продолжительность промежутка : 42 мс. (1,00 видеокадр)
Время предзагрузки промежутка : 500 мс.
Аудио #3
Идентификатор : 3
Формат : AC-3
Формат/Информация : Audio Coding 3
Расширение режима : CM (complete main)
Параметр Endianness формата : Big
Идентификатор кодека : 2000
Продолжительность : 42 м.
Вид битрейта : Постоянный
Битрейт : 192 Кбит/сек
Каналы : 2 канала
Расположение каналов : Front: L R
Частота : 48,0 КГц
Частота кадров : 31,250 кадров/сек (1536 spf)
Метод сжатия : С потерями
Размер потока : 58,0 Мбайт (9%)
Выравнивание : Разделение по промежуткам
Продолжительность промежутка : 42 мс. (1,00 видеокадр)
Время предзагрузки промежутка : 500 мс.
-
-Скриншоты:
-
-
1. Открыть торрент
2. Снять галки с тех файлов торрента, которые мы не хотим закачивать. Оставляем только на нужных нам файлах (файле).
3. Нажать О.К.
В клиенте utorrent
Инструкция
1) Открыть торрент

2) Снять галки с тех файлов торрента, которые мы не хотим закачивать:
* либо вручную, снимая с каждого файла галку( скрин №1)
* либо, нажав кнопку "Снять метки (Select None)", сняв сразу со всех файлов(скрин №2)
№1

№2

Оставляем только на нужных нам файлах (файле).

3)Нажать О.К
-Добавлена десятая, заключительная, серия второго сезона-
Download / Скачать

Хотите скачать бесплатно? Зарегистрируйтесь на сайте (ссылка на регистрацию). Pirat.ca - самый быстрый торрент трекер в рунете!

Как скачивать  ·   Что такое торрент  ·   Рейтинг и ограничения

Показать сообщения:    
Ответить на тему

Текущее время: Сегодня 12:51

Часовой пояс: GMT + 4



Вы не можете начинать темы
Вы не можете отвечать на сообщения
Вы не можете редактировать свои сообщения
Вы не можете удалять свои сообщения
Вы не можете голосовать в опросах
Вы не можете прикреплять файлы к сообщениям
Вы не можете скачивать файлы

▼ Вниз