ML
     
  Уважаемый Гость!
Вы можете поддержать проект и зарегистрироваться у наших партнеров - онлайн-стратегия MyLands. При регистрации в игре Вы получите код, который сможете активировать после регистрации на pirat.ca и получить 1000 дублонов.

Ваш код:
fcd618d94adc1456bccbde5047c9cd0930e4ae4d
 
     

Сотня / The 100 / Сезон: 3 / Серии: 16 из 16 (Дин Уайт / Dean White, ...) [2016 г., фантастика, драма, детектив, ..., WEB-DLRip] MVO (BaibaKo) + Original (Eng) [Финал сезона]

Ответить на тему
 
Автор
Сообщение

Пост 24-Янв-2016 23:32

[Q] 

kugesan

-Сотня / The 100 «Survival isn't who you are. It's who you become»-- Производство: США
Жанр: фантастика, драма, детектив, ...
Год выпуска: 2016 г.-Премьера (мир): 19 марта 2014, ...
Премьера (РФ): 18 января 2015-Озвучка: Студия
Перевод: Многоголосый закадровый, профессиональный
Оригинальный аудиопоток: английский-Перевод: Татьяна Saavick
Озвучка: Лира Грим, Anna_Smile, Олекса Мельник и Сергей Корчак
Монтаж: Виталий Мартыняк
Обложка: tvblog-Режиссер: Дин Уайт / Dean White, Эд Фрэйман / Ed Fraiman, Майрзи Алмас / Mairzee Almas, ...-В ролях: Элайза Тейлор, Мари Авгеропулос, Боб Морли, Генри Йен Кьюсик, Исайя Вашингтон, Пейдж Турко, Рики Уиттл, Ричард Хэрмон, Линдси Морган, Девон Бостик ...-Описание:
После столкновения с горцами проходит три месяца. Люди неба продолжают строить свой дом, ведя поиски выживших с Ковчега. На Земле - шаткое перемирие, которое может быть нарушено, благодаря малейшей ошибке. Именно в этот момент королева Ледяного народа выпускает приказ о награде за поимку загадочной Ванхэды, повелительницы смерти, которую начинают искать все охотники за головами.-
Сезон: 3
Серии: 16 из 16 серий
Продолжительность: ~ 00:42:00 мин серия-Качество видео: WEB-DLRip
Контейнер: AVI
Видео кодек: XviD
Аудио кодек: AC-3
Видео: MPEG-4 Visual at 1500 Кбит/сек: 720 x 400 (1.800) at 23.976 fps: 0.22 Бит/Пиксели
Аудио Rus: AC-3 at 192 Кбит/сек: 2 канала, 48,0 КГц |BaibaKo|
Аудио Eng: AC-3 at 192 Кбит/сек: 2 канала, 48,0 КГц |Original|
Cубтитры: отсутствуют
- -
  • Ван'эда, Часть 1 (Wanheda: Part One)
  • Ван'эда, Часть 2 (Wanheda: Part two)
  • Всяк сюда входящий (Ye Who Enter Here)
  • Следи за троном (Watch the Thrones)
  • Хакельдама (Hakeldama)
  • Горький урожай (Bitter Harvest)
  • Тринадцать (Thirteen)
  • Постановления и условия (Terms and Conditions)
  • Кража огня (Stealing Fire)
  • Падение (Fallen)
  • Никогда (Nevermore)
  • Демоны (Demons)
  • Присоединитесь или умрите (Join or Die)
  • Багряный рассвет (Red Sky at Morning)
  • Некорректная реализация: часть 1 (Perverse Instantiation: Part One)
  • Некорректная реализация: Часть 2 (Perverse Instantiation: Part Two)
-
Общее
Полное имя : E:\_Сериалы\_Сериалы\Сотня\The100.s03.WEB-DLRip.Rus.Eng.BaibaKo\The100.s03e01.WEB-DLRip.Rus.Eng.BaibaKo.avi
Формат : AVI
Формат/Информация : Audio Video Interleave
Размер файла : 578 Мбайт
Продолжительность : 42 м.
Общий поток : 1898 Кбит/сек
Программа кодирования : VirtualDubMod 1.5.10.2 (build 2540/release)
Библиотека кодирования : VirtualDubMod build 2540/release
Видео
Идентификатор : 0
Формат : MPEG-4 Visual
Профиль формата : Advanced [email protected]
Параметр BVOP формата : 2
Параметр QPel формата : Нет
Параметр GMC формата : Без точки перехода
Параметр матрицы формата : Default (MPEG)
Идентификатор кодека : XVID
Идентификатор кодека/Подсказка : XviD
Продолжительность : 42 м.
Битрейт : 1500 Кбит/сек
Ширина : 720 пикселей
Высота : 400 пикселей
Соотношение сторон : 16:9
Частота кадров : 23,976 (23976/1000) кадра/сек
Цветовое пространство : YUV
Субдискретизация насыщенности : 4:2:0
Битовая глубина : 8 бит
Тип развёртки : Прогрессивная
Метод сжатия : С потерями
Бит/(Пиксели*Кадры) : 0.217
Размер потока : 457 Мбайт (79%)
Библиотека кодирования : XviD 1.2.0.dev47 (UTC 2006-11-01)
Аудио #1
Идентификатор : 1
Формат : AC-3
Формат/Информация : Audio Coding 3
Расширение режима : CM (complete main)
Параметр Endianness формата : Big
Идентификатор кодека : 2000
Продолжительность : 42 м.
Вид битрейта : Постоянный
Битрейт : 192 Кбит/сек
Каналы : 2 канала
Расположение каналов : Front: L R
Частота : 48,0 КГц
Частота кадров : 31,250 кадров/сек (1536 spf)
Метод сжатия : С потерями
Размер потока : 58,5 Мбайт (10%)
Выравнивание : Разделение по промежуткам
Продолжительность промежутка : 42 мс. (1,00 видеокадр)
Время предзагрузки промежутка : 500 мс.
Аудио #2
Идентификатор : 2
Формат : AC-3
Формат/Информация : Audio Coding 3
Расширение режима : CM (complete main)
Параметр Endianness формата : Big
Идентификатор кодека : 2000
Продолжительность : 42 м.
Вид битрейта : Постоянный
Битрейт : 192 Кбит/сек
Каналы : 2 канала
Расположение каналов : Front: L R
Частота : 48,0 КГц
Частота кадров : 31,250 кадров/сек (1536 spf)
Метод сжатия : С потерями
Размер потока : 58,5 Мбайт (10%)
Выравнивание : Разделение по промежуткам
Продолжительность промежутка : 42 мс. (1,00 видеокадр)
Время предзагрузки промежутка : 500 мс.
-
-Скриншоты:
-
-
Раздача ведётся путём добавления новых серий; при каждом добавлении создаётся новый торрент.
Чтобы начать докачку новой серии, пользователям необходимо сделать следующее:
1. остановить скачивание,
2. удалить старый торрент у себя из клиента (старые серии удалять не надо),
3. скачать новый торрент и запустить его у себя в клиенте вместо старого, при этом указать клиенту путь в старую папку, куда и должно происходить скачивание новых серий.
Ваш клиент при этом должен произвести хеширование (проверку) старой папки (если не производит сам - помогите ему сделать это), и будет докачивать только те серии которых у вас ещё нет. Старые серии при этом не удаляются, а продолжают раздаваться!
Eсли вы уже удалили старые серии, то предотвратить повторную закачку старых серий можно, отжав галочку в соответствующих местах при запуске нового торрента. По возможности, желательно не удалять старые серии как можно дольше, чтобы релизёр не столько продолжал раздавать старые серии, а смог сконцентрироваться на новых.
Совет для тех, кто не хочет ждать перехеширования:
Создайте ещё одну папку рядом с папкой сериала (рядом, а не в ней!!!). Каждую новую серию после удачной загрузки копируйте в новую папку так чтобы ваша основная папка всегда была пуста. Когда ваш новый торрент предложит вам закачать все файлы, выберете только последнюю. Для сидирования же укажите адрес новой папки.
Как закачать отдельный файл из торрента или докачать ранее пропущенные файлы торрента!
-
1. Открыть торрент
2. Снять галки с тех файлов торрента, которые мы не хотим закачивать. Оставляем только на нужных нам файлах (файле).
3. Нажать О.К.
В клиенте utorrent
Инструкция
1) Открыть торрент

2) Снять галки с тех файлов торрента, которые мы не хотим закачивать:
* либо вручную, снимая с каждого файла галку( скрин №1)
* либо, нажав кнопку "Снять метки (Select None)", сняв сразу со всех файлов(скрин №2)
№1

№2

Оставляем только на нужных нам файлах (файле).

3)Нажать О.К
-Добавлена шестнадцатая, заключительная, серия третьего сезона-Приятного просмотра!!!-
Download / Скачать

Хотите скачать бесплатно? Зарегистрируйтесь на сайте (ссылка на регистрацию). Pirat.ca - самый быстрый торрент трекер в рунете!

Как скачивать  ·   Что такое торрент  ·   Рейтинг и ограничения



Последний раз редактировалось: kugesan (2016-05-21 19:54), всего редактировалось 18 раз(а)

Stalker_29

Корсар

Пост 11-Фев-2016 13:52 (спустя 17 дней)

[Q] 

Забираю, премного благодарен! Спасибо!!! Автору респект!!!
[Профиль]  [ЛС] 

pozdnyakoff75

Гроза морей

2803

Пост 10-Апр-2016 09:22 (спустя 1 месяц 27 дней)

[Q] 

Спасибо!!! Добрый человеГ!
[Профиль]  [ЛС] 

jofrei53

Корсар

Пост 01-Май-2016 20:25 (спустя 21 день)

[Q] 

Спасибо! Спасибо!!! Автору респект!!!
[Профиль]  [ЛС] 

pdb08

Легенда

Пост 11-Май-2016 22:34 (спустя 10 дней)

[Q] 

Благодарю автора за его неуёмный труд! Раздающему респект!

_________________
[Профиль]  [ЛС] 

kugesan ®

56710

Пост 21-Май-2016 19:54 (спустя 9 дней)

[Q] 

Добавлена шестнадцатая, заключительная, серия третьего сезона-Приятного просмотра!!!-

_________________

В мире две бесконечности: вселенная и человеческая глупость - Альберт Эйнштен
«Можно вытащить человека из грязи, но нельзя вытащить грязь из человека»!
[Профиль]  [ЛС] 
Показать сообщения:    
Ответить на тему

Текущее время: Сегодня 12:52

Часовой пояс: GMT + 4



Вы не можете начинать темы
Вы не можете отвечать на сообщения
Вы не можете редактировать свои сообщения
Вы не можете удалять свои сообщения
Вы не можете голосовать в опросах
Вы не можете прикреплять файлы к сообщениям
Вы не можете скачивать файлы

▼ Вниз