ML
     
  Уважаемый Гость!
Вы можете поддержать проект и зарегистрироваться у наших партнеров - онлайн-стратегия MyLands. При регистрации в игре Вы получите код, который сможете активировать после регистрации на pirat.ca и получить 1000 дублонов.

Ваш код:
8dcb839cf1b47e56d6dc42d17f26b3e4822e9aee
 
     

Черные паруса / Black Sails / Сезон: 3 / Серии: 1-10 (10) (Стив Бойум / Steve Boyum, ...) [2016 г., драма, приключения, HDTV, 1080p] MVO (Amedia) + Original (Eng) + Sub (Rus, Eng)

Ответить на тему
 
Автор
Сообщение

Пост 24-Янв-2016 23:51

[Q] 

TERMOS

Легенда

-Черные паруса / Black Sails
«Take what's yours»
(3 сезон)
-- Производство: США, ЮАР
Жанр: драма, приключения
Год выпуска: 2016 г.
Продолжительность: 10x ~00:56:00
Перевод: Любительский (многоголосый, закадровый) [Amedia]
Оригинальный аудиопоток: английский
Режиссер: Стив Бойум / Steve Boyum, Нил Маршалл / Neil Marshall, Сэм Миллер / Sam Miller, ...-В ролях: Тоби Стивенс, Ханна Нью, Люк Арнольд, Зак Макгоун, Тоби Шмитц, Клара Пэджет, Марк Райан, Хаким Кае-Казим, Дилан Скьюс, Шон Майкл, Джессика Паркер Кеннеди, Том Хоппер и др.-Описание: Чарльз Таун живет в страхе под гнетом Капитана Флинта, который по всему городу сеет ужас, граничащий с безумием — на долю Джона Сильвера выпадает честь спасти в нем человека. А в это время Джек Рэкхэм и Капитан Уэйн борются за безопасность Нассау.
- -Качество видео: HDTV
Контейнер: WMV
Стандарт разрешения: 1080p
Видео кодек: H.264/AVC
Аудио кодек: AC3
Видео: 1920x1080 at 25.000 fps, ~5000 kbps avg
Аудио: Russian: 48 kHz, AC3, 3/2 (L,C,R,l,r) + LFE ch, ~640.00 kbps avg |Многоголосый закадровый, Amedia|
Аудио #2: English: 48 kHz, AC3, 3/2 (L,C,R,l,r) + LFE ch, ~384.00 kbps avg
Cубтитры: русские, английские
Код:
Format                      : Matroska
Format version              : Version 4 / Version 2
File size                   : 2.42 GiB
Duration                    : 57mn 30s
Overall bit rate            : 6 018 Kbps
Movie name                  : Black.Sails.S03E01.XIX.1080p.HDTV
Encoded date                : UTC 2016-01-31 12:52:53
Writing application         : mkvmerge v8.8.0 ('Wind at my back') 64bit
Writing library             : libebml v1.3.3 + libmatroska v1.4.4
Attachements                : Cover
DURATION                    : 00:57:29.984000000
NUMBER_OF_FRAMES            : 107812
NUMBER_OF_BYTES             : 165599232
_STATISTICS_WRITING_APP     : mkvmerge v8.8.0 ('Wind at my back') 64bit
_STATISTICS_WRITING_DATE_UT : 2016-01-31 12:52:53
_STATISTICS_TAGS            : BPS DURATION NUMBER_OF_FRAMES NUMBER_OF_BYTES
Video
ID                          : 1
Format                      : AVC
Format/Info                 : Advanced Video Codec
Format profile              : [email protected]
Format settings, CABAC      : Yes
Format settings, ReFrames   : 4 frames
Codec ID                    : V_MPEG4/ISO/AVC
Duration                    : 57mn 30s
Bit rate                    : 5 000 Kbps
Width                       : 1 920 pixels
Height                      : 1 080 pixels
Display aspect ratio        : 16:9
Frame rate mode             : Constant
Frame rate                  : 25.000 fps
Color space                 : YUV
Chroma subsampling          : 4:2:0
Bit depth                   : 8 bits
Scan type                   : Progressive
Bits/(Pixel*Frame)          : 0.096
Stream size                 : 1.96 GiB (81%)
Title                       : Amedia
Writing library             : x264 core 142 r2491 24e4fed
Encoding settings           : cabac=1 / ref=3 / deblock=1:1:-1 / analyse=0x3:0x133 / me=umh / subme=9 / psy=1 / psy_rd=1.00:0.00 / mixed_ref=1 / me_range=48 / chroma_me=1 / trellis=2 / 8x8dct=1 / cqm=0 / deadzone=21,11 / fast_pskip=0 / chroma_qp_offset=-2 / threads=36 / lookahead_threads=4 / sliced_threads=0 / slices=4 / nr=0 / decimate=1 / interlaced=0 / bluray_compat=0 / constrained_intra=0 / bframes=6 / b_pyramid=2 / b_adapt=2 / b_bias=0 / direct=3 / weightb=1 / open_gop=0 / weightp=2 / keyint=250 / keyint_min=22 / scenecut=40 / intra_refresh=0 / rc_lookahead=50 / rc=2pass / mbtree=1 / bitrate=5000 / ratetol=1.0 / qcomp=0.70 / qpmin=10 / qpmax=49 / qpstep=4 / cplxblur=20.0 / qblur=0.5 / vbv_maxrate=9000 / vbv_bufsize=2500 / nal_hrd=none / filler=0 / ip_ratio=1.40 / aq=1:1.00
Language                    : English
Default                     : Yes
Forced                      : No
Audio #1
ID                          : 2
Format                      : AC-3
Format/Info                 : Audio Coding 3
Mode extension              : CM (complete main)
Format settings, Endianness : Big
Codec ID                    : A_AC3
Duration                    : 57mn 30s
Bit rate mode               : Constant
Bit rate                    : 640 Kbps
Channel(s)                  : 6 channels
Channel positions           : Front: L C R, Side: L R, LFE
Sampling rate               : 48.0 KHz
Bit depth                   : 16 bits
Compression mode            : Lossy
Stream size                 : 263 MiB (11%)
Title                       : DD 5.1 @ 640 Kbps - Amedia
Language                    : Russian
Default                     : Yes
Forced                      : No
Audio #2
ID                          : 3
Format                      : AC-3
Format/Info                 : Audio Coding 3
Mode extension              : CM (complete main)
Format settings, Endianness : Big
Codec ID                    : A_AC3
Duration                    : 57mn 30s
Bit rate mode               : Constant
Bit rate                    : 384 Kbps
Channel(s)                  : 6 channels
Channel positions           : Front: L C R, Side: L R, LFE
Sampling rate               : 48.0 KHz
Bit depth                   : 16 bits
Compression mode            : Lossy
Stream size                 : 158 MiB (6%)
Title                       : DD 5.1 @ 384 Kbps - Original
Language                    : English
Default                     : No
Forced                      : No
Text #1
ID                          : 4
Format                      : UTF-8
Codec ID                    : S_TEXT/UTF8
Codec ID/Info               : UTF-8 Plain Text
Title                       : Full
Language                    : Russian
Default                     : No
Forced                      : No
Text #2
ID                          : 5
Format                      : UTF-8
Codec ID                    : S_TEXT/UTF8
Codec ID/Info               : UTF-8 Plain Text
Language                    : English
Default                     : No
Forced                      : No
Download / Скачать

Хотите скачать бесплатно? Зарегистрируйтесь на сайте (ссылка на регистрацию). Pirat.ca - самый быстрый торрент трекер в рунете!

Как скачивать  ·   Что такое торрент  ·   Рейтинг и ограничения



Последний раз редактировалось: TERMOS (2016-03-27 20:31), всего редактировалось 10 раз(а)

Region-89

Гроза морей

550

Пост 25-Янв-2016 00:42 (спустя 51 минута)

[Q] 

ну на конец то, и тут выложили! bp Лови бочку

_________________
[Профиль]  [ЛС] 

TERMOS ®

Легенда

12068

Пост 31-Янв-2016 21:38 (спустя 6 дней)

[Q] 

Добавлена 2-я серия + в раздачу добавлены русские субтитры. Обновите торрент-файл!

_________________
[Профиль]  [ЛС] 

Prorok155

Корсар

Пост 31-Янв-2016 23:19 (спустя 1 час 40 минут)

[Q] 

Спасибо. Автору респект!!!
[Профиль]  [ЛС] 

TERMOS ®

Легенда

12068

Пост 07-Фев-2016 21:13 (спустя 6 дней)

[Q] 

Добавлена 3-я серия. Обновите торрент-файл!

_________________
[Профиль]  [ЛС] 

PPA55

Морской Волк

Пост 12-Фев-2016 12:21 (спустя 4 дня)

[Q] 

спасибо! посмотрим.
[Профиль]  [ЛС] 

Bozo

Флибустьер

Пост 17-Фев-2016 20:54 (спустя 5 дней)

[Q] 

Только HD !!! !COOL!
[Профиль]  [ЛС] 

TERMOS ®

Легенда

12068

Пост 20-Фев-2016 22:45 (спустя 3 дня)

[Q] 

Добавлена 4-я серия. Обновите торрент-файл!

_________________
[Профиль]  [ЛС] 

TERMOS ®

Легенда

12068

Пост 21-Фев-2016 11:45 (спустя 12 часов)

[Q] 

Добавлена 5-я серия. Обновите торрент-файл!

_________________
[Профиль]  [ЛС] 

Yuriy2110

Пост 21-Фев-2016 13:54 (спустя 2 часа 9 минут)

[Q] 

Спасибо за оперативность!
[Профиль]  [ЛС] 

sorvigolova

Корсар

799

Пост 22-Фев-2016 22:52 (спустя 1 день 8 часов)

[Q] 

TERMOS, перевод от лостфилма добавишь?
[Профиль]  [ЛС] 

TERMOS ®

Легенда

12068

Пост 25-Фев-2016 01:00 (спустя 2 дня 2 часа)

[Q] 

sorvigolova, сомневаюсь.

_________________
[Профиль]  [ЛС] 

TERMOS ®

Легенда

12068

Пост 28-Фев-2016 20:27 (спустя 3 дня)

[Q] 

Добавлена 6-я серия. Обновите торрент-файл!

_________________
[Профиль]  [ЛС] 

TERMOS ®

Легенда

12068

Пост 06-Мар-2016 20:18 (спустя 6 дней)

[Q] 

Добавлена 7-я серия. Обновите торрент-файл!

_________________
[Профиль]  [ЛС] 

somik

Легенда

27241

Пост 07-Мар-2016 12:58 (спустя 16 часов)

[Q] 

Спасибо!!! Лови бочку

_________________
Всё когда-нибудь уже было... В интернете!
[Профиль]  [ЛС] 

TERMOS ®

Легенда

12068

Пост 13-Мар-2016 11:54 (спустя 5 дней)

[Q] 

Добавлена 8-я серия. Обновите торрент-файл!

_________________
[Профиль]  [ЛС] 

somik

Легенда

27241

Пост 13-Мар-2016 17:49 (спустя 5 часов)

[Q] 

Дождались. Спасибо!

_________________
Всё когда-нибудь уже было... В интернете!
[Профиль]  [ЛС] 

Bayron3

Штурман

92

Пост 13-Мар-2016 21:50 (спустя 4 часа)

[Q] 

Автору респект!!! Пиратка рулит! Всем качать!!!
[Профиль]  [ЛС] 

SerShok

Лоцман

Пост 18-Мар-2016 23:55 (спустя 5 дней)

[Q] 

Лови бочку Спасибо!!!
[Профиль]  [ЛС] 

TERMOS ®

Легенда

12068

Пост 20-Мар-2016 12:45 (спустя 1 день 12 часов)

[Q] 

Добавлена 9-я серия. Обновите торрент-файл!

_________________
[Профиль]  [ЛС] 

IgorWOO

Корсар

Пост 20-Мар-2016 13:21 (спустя 36 минут)

[Q] 

Да Вы ж мои дорогие пираты!))) Только собрался заскучать!))
[Профиль]  [ЛС] 

TERMOS ®

Легенда

12068

Пост 20-Мар-2016 14:02 (спустя 41 минута)

[Q] 

IgorWOO, типа так? Не надо, может чего интересного сегодня накидаю...

_________________
[Профиль]  [ЛС] 

TERMOS ®

Легенда

12068

Пост 27-Мар-2016 20:33 (спустя 7 дней)

[Q] 

Добавлена 10-я серия. Финал сезона! Обновите торрент-файл!

_________________
[Профиль]  [ЛС] 

mb1969

Корсар

Пост 03-Апр-2016 18:43 (спустя 6 дней)

[Q] 

Зачётный сериал. Даже жаль что закончился!
[Профиль]  [ЛС] 

Bozo

Флибустьер

Пост 25-Июн-2016 15:19 (спустя 2 месяца 21 день)

[Q] 

Хорошее продолжение, жаль Уэйна !! )
[Профиль]  [ЛС] 
Показать сообщения:    
Ответить на тему

Текущее время: Сегодня 04:14

Часовой пояс: GMT + 4



Вы не можете начинать темы
Вы не можете отвечать на сообщения
Вы не можете редактировать свои сообщения
Вы не можете удалять свои сообщения
Вы не можете голосовать в опросах
Вы не можете прикреплять файлы к сообщениям
Вы не можете скачивать файлы

▼ Вниз