ML
     
  Уважаемый Гость!
Вы можете поддержать проект и зарегистрироваться у наших партнеров - онлайн-стратегия MyLands. При регистрации в игре Вы получите код, который сможете активировать после регистрации на pirat.ca и получить 1000 дублонов.

Ваш код:
5af7de75d3db09b6a37bc8bab71b0e87ccde73d6
 
     

Чёрные паруса / Black Sails / Сезон: 3 / Серии: 10 из 10 (Стив Бойум / Steve Boyum ...) [2016г., драма, приключения, ..., HDTVRip] МVO (BaibaKo) + Original (Eng) [финал сезона]

Ответить на тему
 
Автор
Сообщение

Пост 25-Янв-2016 00:19

[Q] 

kugesan


Чёрные паруса /Black Sails
«Take what's yours»- Русское название: Чёрные паруса
Оригинальное название: Black Sails
Страна: США, ЮАР
Год выпуска: 2016
Жанр: драма, приключения, ...-Релиз:
Перевод: Профессиональный (многоголосый, закадровый)
Оригинальный аудиопоток: английский-Авторы перевода:: Янина Галицкая и vipere
Озвучка: Татьяна Оболевич, Виталий Ткаченко, Артемий Мирон и Олекса Мельник
Монтаж и сведение звука: Виталий Ткаченко
Обложка: Антон Максимов-Премьера (мир): 25 января 2014
Премьера (РФ): 26 января 2014-Режиссер: Стив Бойум / Steve Boyum, Алик Сахаров / Alik Sakharov, Лукас Эттлин / Lukas Ettlin, ...
В главных ролях: Тоби Стивенс, Ханна Нью, Люк Арнольд, Зэк Макгоун, Тоби Шмитц, Клара Пэджет, Марк Райан, Хаким Кае-Казим, Дилан Скьюс, Шон Майкл, ...-Описание фильма:
1715 год. Золотой век — вершина пиратства в Карибском море. Остров бывшей британской колонии Нью-Провиденс является территорией беззакония, контролируемый самыми известными пиратскими капитанами в истории. Самым грозным из них является капитан Флинт.Но британский флот возвращается в эти воды, угрожая уничтожить Флинта и его команду. Движимый глубокими, сложными, даже романтическими мотивами, Флинт становится союзником с грозной Элеонорой Гатри, дочерью местного вора в законе, который превращает добычу пиратов в прибыль. Вместе они создают план, охотясь за высшей наградой, выиграв которую, они остановят захват своего дома и обеспечат их выживание.Им противостоит ряд соперников: конкурент капитана, завидующий власти Флинта, отец Элеоноры, чьи амбиции на острове приводят к конфликту с дочерью, и молодой моряк, Джон Сильвер, недавно принятый в экипаж Флинта, которому каким-то образом удается постоянно срывать планы своего капитана.-Сезон: 3
Серии: 10 из 10 серий
Продолжительность: ~ 01:00:00 мин серия-
Качество видео: HDTVRip
Формат: AVI
Видеокодек: XviD
Аудиокодек: AC-3
Видео: MPEG-4 Visual at 1500 Кбит/сек: 720 x 400 (1.800) at 23.976 fps, 0.22 bit/pixel
Аудио Rus: AC-3 at 192 Кбит/сек: 2 канала, 48,0 КГц |BaibaKo|
Аудио Eng: AC-3 at 192 Кбит/сек: 2 канала, 48,0 КГц |Original|
Cубтитры: отсутствуют
-
-
Общее
Полное имя : E:\_Сериалы\_Сериалы\Черные Паруса\Black.Sails.s03e01.HDTVRip.Rus.Eng.BaibaKo\Black.Sails.s03e01.HDTVRip.Rus.Eng.BaibaKo.avi
Формат : AVI
Формат/Информация : Audio Video Interleave
Размер файла : 817 Мбайт
Продолжительность : 1 ч. 0 м.
Общий поток : 1898 Кбит/сек
Программа кодирования : VirtualDubMod 1.5.10.2 (build 2540/release)
Библиотека кодирования : VirtualDubMod build 2540/release
Видео
Идентификатор : 0
Формат : MPEG-4 Visual
Профиль формата : Advanced [email protected]
Параметр BVOP формата : 2
Параметр QPel формата : Нет
Параметр GMC формата : Без точки перехода
Параметр матрицы формата : Default (MPEG)
Идентификатор кодека : XVID
Идентификатор кодека/Подсказка : XviD
Продолжительность : 1 ч. 0 м.
Битрейт : 1500 Кбит/сек
Ширина : 720 пикселей
Высота : 400 пикселей
Соотношение сторон : 16:9
Частота кадров : 23,976 (23976/1000) кадра/сек
Цветовое пространство : YUV
Субдискретизация насыщенности : 4:2:0
Битовая глубина : 8 бит
Тип развёртки : Прогрессивная
Метод сжатия : С потерями
Бит/(Пиксели*Кадры) : 0.217
Размер потока : 645 Мбайт (79%)
Библиотека кодирования : XviD 1.2.0.dev47 (UTC 2006-11-01)
Аудио #1
Идентификатор : 1
Формат : AC-3
Формат/Информация : Audio Coding 3
Расширение режима : CM (complete main)
Параметр Endianness формата : Big
Идентификатор кодека : 2000
Продолжительность : 1 ч. 0 м.
Вид битрейта : Постоянный
Битрейт : 192 Кбит/сек
Каналы : 2 канала
Расположение каналов : Front: L R
Частота : 48,0 КГц
Частота кадров : 31,250 кадров/сек (1536 spf)
Метод сжатия : С потерями
Размер потока : 82,6 Мбайт (10%)
Выравнивание : Разделение по промежуткам
Продолжительность промежутка : 42 мс. (1,00 видеокадр)
Время предзагрузки промежутка : 500 мс.
Аудио #2
Идентификатор : 2
Формат : AC-3
Формат/Информация : Audio Coding 3
Расширение режима : CM (complete main)
Параметр Endianness формата : Big
Идентификатор кодека : 2000
Продолжительность : 1 ч. 0 м.
Вид битрейта : Постоянный
Битрейт : 192 Кбит/сек
Каналы : 2 канала
Расположение каналов : Front: L R
Частота : 48,0 КГц
Частота кадров : 31,250 кадров/сек (1536 spf)
Метод сжатия : С потерями
Размер потока : 82,6 Мбайт (10%)
Выравнивание : Разделение по промежуткам
Продолжительность промежутка : 42 мс. (1,00 видеокадр)
Время предзагрузки промежутка : 500 мс.
-
-Скриншоты:
-
-
1. Открыть торрент
2. Снять галки с тех файлов торрента, которые мы не хотим закачивать. Оставляем только на нужных нам файлах (файле).
3. Нажать О.К.
В клиенте utorrent
Инструкция
1) Открыть торрент

2) Снять галки с тех файлов торрента, которые мы не хотим закачивать:
* либо вручную, снимая с каждого файла галку( скрин №1)
* либо, нажав кнопку "Снять метки (Select None)", сняв сразу со всех файлов(скрин №2)
№1

№2

Оставляем только на нужных нам файлах (файле).

3)Нажать О.К
-Добавлена десятая, заключительная, серия третьего сезона-
Download / Скачать

Хотите скачать бесплатно? Зарегистрируйтесь на сайте (ссылка на регистрацию). Pirat.ca - самый быстрый торрент трекер в рунете!

Как скачивать  ·   Что такое торрент  ·   Рейтинг и ограничения



Последний раз редактировалось: kugesan (2016-11-19 17:00), всего редактировалось 11 раз(а)

psvcrazy

Морской Волк

Пост 25-Янв-2016 04:21 (спустя 4 часа)

[Q] 

дадада! ура! спасибо! Лови бочку
[Профиль]  [ЛС] 

Prorok155

Корсар

Пост 15-Фев-2016 10:32 (спустя 21 день)

[Q] 

Спасибо. Супер!
[Профиль]  [ЛС] 

jofrei53

Корсар

Пост 15-Фев-2016 19:27 (спустя 8 часов)

[Q] 

ОГРОМНОЕ СПАСИБО!!!Это классно.
Супер! Лови бочку
[Профиль]  [ЛС] 

kugesan ®

56652

Пост 15-Фев-2016 20:56 (спустя 1 час 29 минут)

[Q] 

Приятного просмотра!!!)))

_________________

В мире две бесконечности: вселенная и человеческая глупость - Альберт Эйнштен
«Можно вытащить человека из грязи, но нельзя вытащить грязь из человека»!
[Профиль]  [ЛС] 

kugesan ®

56652

Пост 23-Мар-2016 14:33 (спустя 1 месяц 7 дней)

[Q] 

Приятного просмотра!!!)))

_________________

В мире две бесконечности: вселенная и человеческая глупость - Альберт Эйнштен
«Можно вытащить человека из грязи, но нельзя вытащить грязь из человека»!
[Профиль]  [ЛС] 

kugesan ®

56652

Пост 27-Мар-2016 14:47 (спустя 4 дня)

[Q] 

-Добавлена десятая, заключительная, серия третьего сезона-

_________________

В мире две бесконечности: вселенная и человеческая глупость - Альберт Эйнштен
«Можно вытащить человека из грязи, но нельзя вытащить грязь из человека»!
[Профиль]  [ЛС] 

Пост 27-Мар-2016 14:59 (спустя 12 минут)

Топик был перенесен из форума Сериалы в эфире в форум Зарубежные сериалы
Андря
 
Показать сообщения:    
Ответить на тему

Текущее время: Сегодня 14:14

Часовой пояс: GMT + 4



Вы не можете начинать темы
Вы не можете отвечать на сообщения
Вы не можете редактировать свои сообщения
Вы не можете удалять свои сообщения
Вы не можете голосовать в опросах
Вы не можете прикреплять файлы к сообщениям
Вы не можете скачивать файлы

▼ Вниз