Уважаемый Гость!
Вы можете поддержать проект и зарегистрироваться у наших партнеров - онлайн-стратегия MyLands. При регистрации в игре Вы получите код, который сможете активировать после регистрации на pirat.ca и получить 1000 дублонов.

Ваш код:
6ed7792fa14b8950c583467e57dbb24bc9208775
 
     

Чёрные паруса / Black Sails / Сезон: 3 / Серии: 1-10 из 10 (Стив Бойум / Steve Boyum) [2016г., драма, приключения, WEB-DLRip] МVO (LostFilm) + Original (Eng) [финал сезона]

Ответить на тему
 
Автор
Сообщение

Пост 25-Янв-2016 22:21

[Q] 

kugesan


Чёрные паруса /Black Sails
«Take what's yours»- Страна: США, ЮАР
Год выпуска: 2016
Жанр: драма, приключения, ...
Продолжительность: ~ 01:00:00 мин серия-Озвучка: Студия
Перевод: Многоголосый закадровый, профессиональный-Премьера (мир): 25 января 2014
Премьера (РФ): 26 января 2014-Режиссер: Стив Бойум / Steve Boyum, Алик Сахаров / Alik Sakharov, Лукас Эттлин / Lukas Ettlin, ...
В главных ролях: Тоби Стивенс, Ханна Нью, Люк Арнольд, Зэк Макгоун, Тоби Шмитц, Клара Пэджет, Марк Райан, Хаким Кае-Казим, Дилан Скьюс, Шон Майкл, ...-Описание фильма:
Историческая приключенческая драма телеканала Starz рассказывает о противостоянии пиратов острова Нью-Провиденс и британского флота, которое началось в XVIII веке после того, как морские разбойники чересчур распустились и почувствовали себя единственными хозяевами Вест-Индии.
За двадцать лет до событий, описанных в романе «Остров сокровищ» Роберта Льюиса Стивенсона, капитан Флинт, один из самых суровых и властных флибустьеров Золотого века пиратства, оказался на пороге получения невероятной добычи. Куш, который он вот-вот сорвет, грозит раз и навсегда изменить расстановку сил на своеобразной политической карте пиратского сообщества. Но на корабле Флинта зреет заговор, внешние враги не дремлют, к тому же, моряк Джон Сильвер, которого капитан неосторожно приютил после очередного «дела», какой-то подозрительный...-
Качество видео: WEB-DLRip
Контейнер: AVI
Видео кодек: XviD
Аудио кодек: MP3
Видео: MPEG-4 Visual at ~ 1500 Кбит/сек: 720 x 400 (1.800) at 23.976 fps: 0.21 Бит/Пиксели
Аудио Rus: MPEG Audio at 128 Кбит/сек: 2 канала, 48,0 КГц |LostFilm|
Аудио Eng: MPEG Audio at 128 Кбит/сек: 2 канала, 48,0 КГц |Original|
Cубтитры: отсутствуют
- -
Общее
Полное имя : E:\_Сериалы\Black Sails (Season 03) LostFilm\Black.Sails.[S03E01].XviD.LostFilm.[qqss44].avi
Формат : AVI
Формат/Информация : Audio Video Interleave
Размер файла : 750 Мбайт
Продолжительность : 59 м. 58 с.
Общий поток : 1748 Кбит/сек
Программа кодирования : VirtualDubMod 1.5.10.3 | www.virtualdub-fr.org || (build 2550/release)
Библиотека кодирования : VirtualDubMod build 2550/release
Видео
Идентификатор : 0
Формат : MPEG-4 Visual
Профиль формата : Advanced [email protected]
Параметр BVOP формата : 2
Параметр QPel формата : Нет
Параметр GMC формата : Без точки перехода
Параметр матрицы формата : Default (MPEG)
Идентификатор кодека : XVID
Идентификатор кодека/Подсказка : XviD
Продолжительность : 59 м. 58 с.
Битрейт : 1479 Кбит/сек
Ширина : 720 пикселей
Высота : 400 пикселей
Соотношение сторон : 16:9
Частота кадров : 23,976 (24000/1001) кадра/сек
Цветовое пространство : YUV
Субдискретизация насыщенности : 4:2:0
Битовая глубина : 8 бит
Тип развёртки : Прогрессивная
Метод сжатия : С потерями
Бит/(Пиксели*Кадры) : 0.214
Размер потока : 634 Мбайт (85%)
Библиотека кодирования : XviD 73
Аудио #1
Идентификатор : 1
Формат : MPEG Audio
Версия формата : Version 1
Профиль формата : Layer 3
Режим : Joint stereo
Расширение режима : MS Stereo
Идентификатор кодека : 55
Идентификатор кодека/Подсказка : MP3
Продолжительность : 59 м. 54 с.
Вид битрейта : Постоянный
Битрейт : 128 Кбит/сек
Каналы : 2 канала
Частота : 48,0 КГц
Метод сжатия : С потерями
Размер потока : 54,8 Мбайт (7%)
Выравнивание : Соединение по промежуткам
Продолжительность промежутка : 42 мс. (1,00 видеокадр)
Время предзагрузки промежутка : 504 мс.
Аудио #2
Идентификатор : 2
Формат : MPEG Audio
Версия формата : Version 1
Профиль формата : Layer 3
Режим : Joint stereo
Расширение режима : MS Stereo
Идентификатор кодека : 55
Идентификатор кодека/Подсказка : MP3
Продолжительность : 59 м. 58 с.
Вид битрейта : Постоянный
Битрейт : 128 Кбит/сек
Каналы : 2 канала
Частота : 48,0 КГц
Метод сжатия : С потерями
Размер потока : 54,9 Мбайт (7%)
Выравнивание : Соединение по промежуткам
Продолжительность промежутка : 42 мс. (1,00 видеокадр)
Время предзагрузки промежутка : 504 мс.
-
-Скриншоты:
-
-
1. Открыть торрент
2. Снять галки с тех файлов торрента, которые мы не хотим закачивать. Оставляем только на нужных нам файлах (файле).
3. Нажать О.К.
В клиенте utorrent
Инструкция
1) Открыть торрент

2) Снять галки с тех файлов торрента, которые мы не хотим закачивать:
* либо вручную, снимая с каждого файла галку( скрин №1)
* либо, нажав кнопку "Снять метки (Select None)", сняв сразу со всех файлов(скрин №2)
№1

№2

Оставляем только на нужных нам файлах (файле).

3)Нажать О.К
-Приятного просмотра!!!-
Download / Скачать

Хотите скачать бесплатно? Зарегистрируйтесь на сайте (ссылка на регистрацию). Pirat.ca - самый быстрый торрент трекер в рунете!

Как скачивать  ·   Что такое торрент  ·   Рейтинг и ограничения



Последний раз редактировалось: kugesan (2017-02-24 17:09), всего редактировалось 15 раз(а)

Авдотья

Шкипер

61

Пост 26-Янв-2016 17:28 (спустя 19 часов)

[Q] 

Ну наконец-то!!! ei

_________________
Мерседес не для тех, кто торопится.
Он для тех, кто уже везде успел...
[Профиль]  [ЛС] 

Drummer901

Штурман

Пост 29-Янв-2016 08:17 (спустя 2 дня 14 часов)

[Q] 

а когда ожидаются следующие серии???
[Профиль]  [ЛС] 

kugesan ®

60112

Пост 29-Янв-2016 11:56 (спустя 3 часа)

[Q] 

Сериал, в оригинале, выходит каждую субботу... плюс 2-3 дня на перевод и озвузчание. Так что думаю по понедельникам - вторникам, сериал будет появляться и у нас.

_________________
В мире две бесконечности: вселенная и человеческая глупость - Альберт Эйнштен
«Можно вытащить человека из грязи, но нельзя вытащить грязь из человека»!
[Профиль]  [ЛС] 

barmaleu222

Штурман

Пост 30-Янв-2016 07:38 (спустя 19 часов)

[Q] 

скачал просто за секунду, люблю вас пираты, вы лучшие !!!))) Лови бочку
[Профиль]  [ЛС] 

ss80

Гроза морей

36

Пост 02-Фев-2016 23:25 (спустя 3 дня)

[Q] 

Спасибо!!! Супер!
[Профиль]  [ЛС] 

Rei1

Легенда

Пост 06-Фев-2016 20:07 (спустя 3 дня)

[Q] 

Спасибо!!! Супер!
[Профиль]  [ЛС] 

kugesan ®

60112

Пост 09-Мар-2016 16:20 (спустя 1 месяц 2 дня)

[Q] 

Добавлена седьмая серия третьего сезона

_________________
В мире две бесконечности: вселенная и человеческая глупость - Альберт Эйнштен
«Можно вытащить человека из грязи, но нельзя вытащить грязь из человека»!
[Профиль]  [ЛС] 

somik

37441

Пост 09-Мар-2016 17:41 (спустя 1 час 21 минута)

[Q] 

Спасибо. Спасибо!!!

_________________
Всё когда-нибудь уже было... В интернете!
[Профиль]  [ЛС] 

kugesan ®

60112

Пост 09-Мар-2016 22:17 (спустя 4 часа)

[Q] 

Приятного просмотра!!!

_________________
В мире две бесконечности: вселенная и человеческая глупость - Альберт Эйнштен
«Можно вытащить человека из грязи, но нельзя вытащить грязь из человека»!
[Профиль]  [ЛС] 

sevensv

Легенда

3158

Пост 10-Мар-2016 00:38 (спустя 2 часа 20 минут)

[Q] 

Раздающему респект! Лови бочку
[Профиль]  [ЛС] 

kugesan ®

60112

Пост 24-Фев-2017 17:10 (спустя 11 месяцев 14 дней)

[Q] 

Теперь в качестве WEB-DLRip

_________________
В мире две бесконечности: вселенная и человеческая глупость - Альберт Эйнштен
«Можно вытащить человека из грязи, но нельзя вытащить грязь из человека»!
[Профиль]  [ЛС] 
Показать сообщения:    
Ответить на тему

Текущее время: Сегодня 02:47

Часовой пояс: GMT + 4



Вы не можете начинать темы
Вы не можете отвечать на сообщения
Вы не можете редактировать свои сообщения
Вы не можете удалять свои сообщения
Вы не можете голосовать в опросах
Вы не можете прикреплять файлы к сообщениям
Вы не можете скачивать файлы

▼ Вниз