ML
     
  Уважаемый Гость!
Вы можете поддержать проект и зарегистрироваться у наших партнеров - онлайн-стратегия MyLands. При регистрации в игре Вы получите код, который сможете активировать после регистрации на pirat.ca и получить 1000 дублонов.

Ваш код:
db0e0ad91548759ffeb9bb88bed405e1a4b3c165
 
     

Чёрные паруса / Black Sails / Сезон: 3 / Серии: 10 из 10 (Стив Бойум / Steve Boyum ...) [2016г., драма, приключения, ..., HDTVRip] МVO (LostFilm) + Original (Eng) [финал сезона]

Ответить на тему
 
Автор
Сообщение

Пост 25-Янв-2016 22:21

[Q] 

kugesan


Чёрные паруса /Black Sails
«Take what's yours»- Русское название: Чёрные паруса
Оригинальное название: Black Sails
Страна: США, ЮАР
Год выпуска: 2016
Жанр: драма, приключения, ...-Озвучка: Студия
Перевод: Многоголосый закадровый, профессиональный-Премьера (мир): 25 января 2014
Премьера (РФ): 26 января 2014-Режиссер: Стив Бойум / Steve Boyum, Алик Сахаров / Alik Sakharov, Лукас Эттлин / Lukas Ettlin, ...
В главных ролях: Тоби Стивенс, Ханна Нью, Люк Арнольд, Зэк Макгоун, Тоби Шмитц, Клара Пэджет, Марк Райан, Хаким Кае-Казим, Дилан Скьюс, Шон Майкл, ...-Описание фильма:
Историческая приключенческая драма телеканала Starz рассказывает о противостоянии пиратов острова Нью-Провиденс и британского флота, которое началось в XVIII веке после того, как морские разбойники чересчур распустились и почувствовали себя единственными хозяевами Вест-Индии.
За двадцать лет до событий, описанных в романе «Остров сокровищ» Роберта Льюиса Стивенсона, капитан Флинт, один из самых суровых и властных флибустьеров Золотого века пиратства, оказался на пороге получения невероятной добычи. Куш, который он вот-вот сорвет, грозит раз и навсегда изменить расстановку сил на своеобразной политической карте пиратского сообщества. Но на корабле Флинта зреет заговор, внешние враги не дремлют, к тому же, моряк Джон Сильвер, которого капитан неосторожно приютил после очередного «дела», какой-то подозрительный...-Сезон: 3
Серии: 10 из 10 серий
Продолжительность: ~ 01:00:00 мин серия-
Качество видео: HDTVRip
Контейнер: AVI
Видео кодек: XviD
Аудио кодек: MP3
Видео: MPEG-4 Visual at 1224 Кбит/сек: 720 x 400 (1.800) at 23.976 fps: 0.18 Бит/Пиксели
Аудио Rus: MPEG Audio at 192 Кбит/сек: 2 канала, 48,0 КГц |LostFilm|
Cубтитры: отсутствуют
- -
Общее
Полное имя : E:\_Сериалы\_Сериалы\Черные Паруса\Black.Sails.S03.rus.LostFilm.TV\Black.Sails.S03E01.rus.LostFilm.TV.avi
Формат : AVI
Формат/Информация : Audio Video Interleave
Размер файла : 612 Мбайт
Продолжительность : 1 ч. 0 м.
Режим общего битрейта : Переменный
Общий поток : 1424 Кбит/сек
Программа кодирования : Nandub v1.0rc2
Библиотека кодирования : Nandub build 1853/release
Видео
Идентификатор : 0
Формат : MPEG-4 Visual
Профиль формата : Advanced [email protected]
Параметр BVOP формата : Нет
Параметр QPel формата : Нет
Параметр GMC формата : Без точки перехода
Параметр матрицы формата : Default (H.263)
Идентификатор кодека : XVID
Идентификатор кодека/Подсказка : XviD
Продолжительность : 1 ч. 0 м.
Битрейт : 1224 Кбит/сек
Ширина : 720 пикселей
Высота : 400 пикселей
Соотношение сторон : 16:9
Частота кадров : 23,976 (23976/1000) кадра/сек
Цветовое пространство : YUV
Субдискретизация насыщенности : 4:2:0
Битовая глубина : 8 бит
Тип развёртки : Прогрессивная
Метод сжатия : С потерями
Бит/(Пиксели*Кадры) : 0.177
Размер потока : 526 Мбайт (86%)
Библиотека кодирования : XviD 1.2.1 (UTC 2008-12-04)
Аудио
Идентификатор : 1
Формат : MPEG Audio
Версия формата : Version 1
Профиль формата : Layer 3
Режим : Joint stereo
Расширение режима : MS Stereo
Идентификатор кодека : 55
Идентификатор кодека/Подсказка : MP3
Продолжительность : 1 ч. 0 м.
Вид битрейта : Переменный
Битрейт : 192 Кбит/сек
Каналы : 2 канала
Частота : 48,0 КГц
Метод сжатия : С потерями
Размер потока : 80,7 Мбайт (13%)
Выравнивание : Соединение по промежуткам
Продолжительность промежутка : 24 мс. (0,58 видеокадр)
Время предзагрузки промежутка : 490 мс.
Библиотека кодирования : LAME3.97b
Настройки программы : -m j -V 4 -q 3 -lowpass 18.6 --abr 192
-
-Скриншоты:
-
-
1. Открыть торрент
2. Снять галки с тех файлов торрента, которые мы не хотим закачивать. Оставляем только на нужных нам файлах (файле).
3. Нажать О.К.
В клиенте utorrent
Инструкция
1) Открыть торрент

2) Снять галки с тех файлов торрента, которые мы не хотим закачивать:
* либо вручную, снимая с каждого файла галку( скрин №1)
* либо, нажав кнопку "Снять метки (Select None)", сняв сразу со всех файлов(скрин №2)
№1

№2

Оставляем только на нужных нам файлах (файле).

3)Нажать О.К
-Добавлена десятая, заключительная, серия третьего сезона-
Download / Скачать

Хотите скачать бесплатно? Зарегистрируйтесь на сайте (ссылка на регистрацию). Pirat.ca - самый быстрый торрент трекер в рунете!

Как скачивать  ·   Что такое торрент  ·   Рейтинг и ограничения



Последний раз редактировалось: kugesan (2016-03-29 23:41), всего редактировалось 10 раз(а)

Авдотья

Шкипер

60

Пост 26-Янв-2016 17:28 (спустя 19 часов)

[Q] 

Ну наконец-то!!! ei

_________________
Мерседес не для тех, кто торопится.
Он для тех, кто уже везде успел...
[Профиль]  [ЛС] 

Drummer901

Штурман

Пост 29-Янв-2016 08:17 (спустя 2 дня 14 часов)

[Q] 

а когда ожидаются следующие серии???
[Профиль]  [ЛС] 

kugesan ®

56719

Пост 29-Янв-2016 11:56 (спустя 3 часа)

[Q] 

Сериал, в оригинале, выходит каждую субботу... плюс 2-3 дня на перевод и озвузчание. Так что думаю по понедельникам - вторникам, сериал будет появляться и у нас.

_________________

В мире две бесконечности: вселенная и человеческая глупость - Альберт Эйнштен
«Можно вытащить человека из грязи, но нельзя вытащить грязь из человека»!
[Профиль]  [ЛС] 

barmaleu222

Штурман

Пост 30-Янв-2016 07:38 (спустя 19 часов)

[Q] 

скачал просто за секунду, люблю вас пираты, вы лучшие !!!))) Лови бочку
[Профиль]  [ЛС] 

ss80

Флибустьер

36

Пост 02-Фев-2016 23:25 (спустя 3 дня)

[Q] 

Спасибо!!! Супер!
[Профиль]  [ЛС] 

Rei1

Флибустьер

Пост 06-Фев-2016 20:07 (спустя 3 дня)

[Q] 

Спасибо!!! Супер!
[Профиль]  [ЛС] 

kugesan ®

56719

Пост 09-Мар-2016 16:20 (спустя 1 месяц 2 дня)

[Q] 

Добавлена седьмая серия третьего сезона

_________________

В мире две бесконечности: вселенная и человеческая глупость - Альберт Эйнштен
«Можно вытащить человека из грязи, но нельзя вытащить грязь из человека»!
[Профиль]  [ЛС] 

somik

Легенда

27244

Пост 09-Мар-2016 17:41 (спустя 1 час 21 минута)

[Q] 

Спасибо. Спасибо!!!

_________________
Всё когда-нибудь уже было... В интернете!
[Профиль]  [ЛС] 

kugesan ®

56719

Пост 09-Мар-2016 22:17 (спустя 4 часа)

[Q] 

Приятного просмотра!!!

_________________

В мире две бесконечности: вселенная и человеческая глупость - Альберт Эйнштен
«Можно вытащить человека из грязи, но нельзя вытащить грязь из человека»!
[Профиль]  [ЛС] 

sevensv

Легенда

2599

Пост 10-Мар-2016 00:38 (спустя 2 часа 20 минут)

[Q] 

Раздающему респект! Лови бочку
[Профиль]  [ЛС] 

kugesan ®

56719

Пост 29-Мар-2016 23:42 (спустя 19 дней)

[Q] 

-Добавлена десятая, заключительная, серия третьего сезона-

_________________

В мире две бесконечности: вселенная и человеческая глупость - Альберт Эйнштен
«Можно вытащить человека из грязи, но нельзя вытащить грязь из человека»!
[Профиль]  [ЛС] 
Показать сообщения:    
Ответить на тему

Текущее время: Сегодня 08:07

Часовой пояс: GMT + 4



Вы не можете начинать темы
Вы не можете отвечать на сообщения
Вы не можете редактировать свои сообщения
Вы не можете удалять свои сообщения
Вы не можете голосовать в опросах
Вы не можете прикреплять файлы к сообщениям
Вы не можете скачивать файлы

▼ Вниз