ML
     
  Уважаемый Гость!
Вы можете поддержать проект и зарегистрироваться у наших партнеров - онлайн-стратегия MyLands. При регистрации в игре Вы получите код, который сможете активировать после регистрации на pirat.ca и получить 1000 дублонов.

Ваш код:
47bfc18b89c74e4ae0d974e9b6943639e2bff08e
 
     

Волшебники / The Magicians / Сезон 1 / Серии: 13 из 13 (Джеймс Л. Конуэй / James L. Conway, ...) [2015г., ужасы, фэнтези, драма, детектив, ... WEB-DLRip] MVO (BaibaKo) + Original (Eng) [Финал сезона]

Ответить на тему
 
Автор
Сообщение

Пост 28-Янв-2016 19:39

[Q] 

kugesan

Волшебники / The Magicians- Страна: США
Год выпуска: 2015
Жанр: ужасы, фэнтези, драма, детектив, ...-Озвучка: Студия
Перевод: Многоголосый закадровый, профессиональный
Оригинальный аудиопоток: английский-Перевод: Фиона Кудреватых
Озвучка: Светлана Доманова, Юля Малахова, Артемий Мирон и Сергей Корчак
Монтаж: Павел Дежин-Премьера (мир): 16 декабря 2015, ...-Режиссер: Джеймс Л. Конуэй / James L. Conway, Скотт Смит / Scott Smith, Майк Кэхилл / Mike Cahill, ...
В главных ролях: Джейсон Ральф (Квентин Колдуотер), Стелла Маив (Джулия Уикер), Оливия Тейлор Дадли (Элис Куин), Хейл Эйплмен (Элиот Во), Арджун Гупта (Пенни), Саммер Бишил (Марго Хэнсон), ...-Описание фильма:
В один прекрасный момент несколько молодых людей удивительным образом оказываются в университете магии Брэйкбиллз, находящемся в Нью-Йорке. Парни делают необычное открытие, вносящее кардинальные перемены в их жизнь: как оказалось, умопомрачительный мир, о котором они так часто читали в детские годы, действительно есть. Не говоря уже о том, что, у всех у них есть собственные волшебные возможности. Но скоро обнаруживается, что жители данной скрытой от постороннего взгляда местности представляют собой гигантскую опасность для всего населения Земли.-Сезон: 1
Серии: 13 из 13 серий
Продолжительность: ~ 00:51:00 мин серия-Качество видео: WEB-DLRip
Контейнер: AVI
Видео кодек: XviD
Аудио кодек: AC-3
Видео: MPEG-4 Visual at 1500 Кбит/сек: 720 x 400 (1.800) at 23.976 fps: 0.22 Бит/Пиксели
Аудио Rus: AC-3 at 192 Кбит/сек: 2 канала, 48,0 КГц |BaibaKo|
Аудио Eng: AC-3 at 192 Кбит/сек: 2 канала, 48,0 КГц |Original|
Cубтитры: отсутствуют
- -
  • Запрещённое волшебство (Unauthorized Magic)
  • Источник магии (The Source of Magic)
  • Последствия заклинаний углубленного уровня (Consequences of Advanced Spellcasting)
  • Мир в стенах (The World in the Walls)
  • Исцеление в большом и малом (Mendings, Major and Minor)
  • Непрактичное применение (Impractical Applications )
  • Случай у Маяковского (The Mayakovsky Circumstances)
  • Пронзённое сердце (The Strangled Heart)
  • Кабинет писателя (The Writing Room)
  • Возвращение домой (Homecoming)
  • Исцеляющая боевая магия (Remedial Battle Magic)
  • 39 могил (Thirty-Nine Graves)
  • Вы принесли мне кексики? (Have You Brought Me Little Cakes)
-
Общее
Полное имя : E:\_Сериалы\_Сериалы\Волшебники\The.Magicians.s01.WEB-DLRip.Rus.Eng.BaibaKo\The.Magicians.s01e02.WEB-DLRip.Rus.Eng.BaibaKo.avi
Формат : AVI
Формат/Информация : Audio Video Interleave
Размер файла : 573 Мбайт
Продолжительность : 42 м.
Общий поток : 1898 Кбит/сек
Программа кодирования : VirtualDubMod 1.5.10.2 (build 2540/release)
Библиотека кодирования : VirtualDubMod build 2540/release
Видео
Идентификатор : 0
Формат : MPEG-4 Visual
Профиль формата : Advanced [email protected]
Параметр BVOP формата : 2
Параметр QPel формата : Нет
Параметр GMC формата : Без точки перехода
Параметр матрицы формата : Default (MPEG)
Идентификатор кодека : XVID
Идентификатор кодека/Подсказка : XviD
Продолжительность : 42 м.
Битрейт : 1500 Кбит/сек
Ширина : 720 пикселей
Высота : 400 пикселей
Соотношение сторон : 16:9
Частота кадров : 23,976 (23976/1000) кадра/сек
Цветовое пространство : YUV
Субдискретизация насыщенности : 4:2:0
Битовая глубина : 8 бит
Тип развёртки : Прогрессивная
Метод сжатия : С потерями
Бит/(Пиксели*Кадры) : 0.217
Размер потока : 453 Мбайт (79%)
Библиотека кодирования : XviD 1.2.0.dev47 (UTC 2006-11-01)
Аудио #1
Идентификатор : 1
Формат : AC-3
Формат/Информация : Audio Coding 3
Расширение режима : CM (complete main)
Параметр Endianness формата : Big
Идентификатор кодека : 2000
Продолжительность : 42 м.
Вид битрейта : Постоянный
Битрейт : 192 Кбит/сек
Каналы : 2 канала
Расположение каналов : Front: L R
Частота : 48,0 КГц
Частота кадров : 31,250 кадров/сек (1536 spf)
Метод сжатия : С потерями
Размер потока : 57,9 Мбайт (10%)
Выравнивание : Разделение по промежуткам
Продолжительность промежутка : 42 мс. (1,00 видеокадр)
Время предзагрузки промежутка : 500 мс.
Аудио #2
Идентификатор : 2
Формат : AC-3
Формат/Информация : Audio Coding 3
Расширение режима : CM (complete main)
Параметр Endianness формата : Big
Идентификатор кодека : 2000
Продолжительность : 42 м.
Вид битрейта : Постоянный
Битрейт : 192 Кбит/сек
Каналы : 2 канала
Расположение каналов : Front: L R
Частота : 48,0 КГц
Частота кадров : 31,250 кадров/сек (1536 spf)
Метод сжатия : С потерями
Размер потока : 57,9 Мбайт (10%)
Выравнивание : Разделение по промежуткам
Продолжительность промежутка : 42 мс. (1,00 видеокадр)
Время предзагрузки промежутка : 500 мс.
-
-Скриншоты:
-
-
Раздача ведётся путём добавления новых серий; при каждом добавлении создаётся новый торрент.
Чтобы начать докачку новой серии, пользователям необходимо сделать следующее:
1. остановить скачивание,
2. удалить старый торрент у себя из клиента (старые серии удалять не надо),
3. скачать новый торрент и запустить его у себя в клиенте вместо старого, при этом указать клиенту путь в старую папку, куда и должно происходить скачивание новых серий.
Ваш клиент при этом должен произвести хеширование (проверку) старой папки (если не производит сам - помогите ему сделать это), и будет докачивать только те серии которых у вас ещё нет. Старые серии при этом не удаляются, а продолжают раздаваться!
Eсли вы уже удалили старые серии, то предотвратить повторную закачку старых серий можно, отжав галочку в соответствующих местах при запуске нового торрента. По возможности, желательно не удалять старые серии как можно дольше, чтобы релизёр не столько продолжал раздавать старые серии, а смог сконцентрироваться на новых.
Совет для тех, кто не хочет ждать перехеширования:
Создайте ещё одну папку рядом с папкой сериала (рядом, а не в ней!!!). Каждую новую серию после удачной загрузки копируйте в новую папку так чтобы ваша основная папка всегда была пуста. Когда ваш новый торрент предложит вам закачать все файлы, выберете только последнюю. Для сидирования же укажите адрес новой папки.
Как закачать отдельный файл из торрента или докачать ранее пропущенные файлы торрента!
-
1. Открыть торрент
2. Снять галки с тех файлов торрента, которые мы не хотим закачивать. Оставляем только на нужных нам файлах (файле).
3. Нажать О.К.
В клиенте utorrent
Инструкция
1) Открыть торрент

2) Снять галки с тех файлов торрента, которые мы не хотим закачивать:
* либо вручную, снимая с каждого файла галку( скрин №1)
* либо, нажав кнопку "Снять метки (Select None)", сняв сразу со всех файлов(скрин №2)
№1

№2

Оставляем только на нужных нам файлах (файле).

3)Нажать О.К
-Добавлена тринадцатая, заключительная, серия первого сезона-
Download / Скачать

Хотите скачать бесплатно? Зарегистрируйтесь на сайте (ссылка на регистрацию). Pirat.ca - самый быстрый торрент трекер в рунете!

Как скачивать  ·   Что такое торрент  ·   Рейтинг и ограничения



Последний раз редактировалось: kugesan (2016-04-15 19:15), всего редактировалось 11 раз(а)

airat85

Корсар

Пост 11-Фев-2016 18:30 (спустя 13 дней)

[Q] 

не знаю, как других, а меня сериал цепанул! видимо потому что герой, напоминает меня в юности))))))
[Профиль]  [ЛС] 

kugesan ®

56710

Пост 18-Фев-2016 22:58 (спустя 7 дней)

[Q] 

-
Удалена реклама, в самом начале каждой серии
-

_________________

В мире две бесконечности: вселенная и человеческая глупость - Альберт Эйнштен
«Можно вытащить человека из грязи, но нельзя вытащить грязь из человека»!
[Профиль]  [ЛС] 

VNXX

Корсар

Пост 26-Фев-2016 15:03 (спустя 7 дней)

[Q] 

Гари Потер с героями-переростками.
[Профиль]  [ЛС] 

Гаврил68

Боцман

Пост 11-Мар-2016 08:44 (спустя 13 дней)

[Q] 

не знаю, как других, а меня сериал цепанул! видимо потому что герой, напоминает меня в юности))))))
чё курил ag
[Профиль]  [ЛС] 

kugesan ®

56710

Пост 15-Апр-2016 19:18 (спустя 1 месяц 4 дня)

[Q] 

-Добавлена тринадцатая, заключительная, серия первого сезона-

_________________

В мире две бесконечности: вселенная и человеческая глупость - Альберт Эйнштен
«Можно вытащить человека из грязи, но нельзя вытащить грязь из человека»!
[Профиль]  [ЛС] 

Пост 18-Май-2016 12:54 (спустя 1 месяц 2 дня)

Топик был перенесен из форума Сериалы в эфире в форум Зарубежные сериалы
Андря
 
Показать сообщения:    
Ответить на тему

Текущее время: Сегодня 07:02

Часовой пояс: GMT + 4



Вы не можете начинать темы
Вы не можете отвечать на сообщения
Вы не можете редактировать свои сообщения
Вы не можете удалять свои сообщения
Вы не можете голосовать в опросах
Вы не можете прикреплять файлы к сообщениям
Вы не можете скачивать файлы

▼ Вниз