ML
     
  Уважаемый Гость!
Вы можете поддержать проект и зарегистрироваться у наших партнеров - онлайн-стратегия MyLands. При регистрации в игре Вы получите код, который сможете активировать после регистрации на pirat.ca и получить 1000 дублонов.

Ваш код:
0fcd44bd35319f69313aa6e53b31c51cbff1c942
 
     

Колония / Colony / Сезон: 1 / Серии: 1-10 (10) (Хуан Хосе Кампанелла / Juan José Campanella) [2016 г., фантастика, WEB-DL, 1080p] MVO (Jaskier, Lostfilm) + Original (Eng) + Sub (Eng)

Ответить на тему
 
Автор
Сообщение

Пост 28-Янв-2016 21:45

[Q] 

TERMOS

Легенда

-Колония / Colony
«The invasion is over. The fight is about to begin.»
(1 сезон)
-- Производство: США
Жанр: фантастика
Год выпуска: 2016 г.
Продолжительность: 10x ~00:43:00
Перевод: Профессиональный (многоголосый, закадровый) [Jaskier]
Перевод 2: Профессиональный (многоголосый, закадровый) [Lostfilm]
Оригинальный аудиопоток: английский
Режиссер: Хуан Хосе Кампанелла / Juan José Campanella, ...-В ролях: Джош Холлоуэй, Сара Уэйн Кэллис, Питер Джекобсон, Аманда Ригетти, Алекс Нюстадтер, Изабелла Крамп, Гонсало Менендес, Брэндон Сайрус, Элли Уокер, Купер Дж. Фридман-Описание: В ближайшем будущем семья пытается спасти жителей оккупированного Лос-Анджелеса. Бывший агент ФБР Уилл Боумэн и его супруга Кейти пробуют вернуть сына.
    Уилл готов работать на новое правительство, тогда как многие в городе поддерживают повстанцев. Лидер режима Прокси Снайдер предлагает Уиллу сделку, которая изменит их жизнь и заставит семью пойти на большой риск.
- - -Качество видео: WEB-DL
Источник: iTunes
Контейнер: MKV
Стандарт разрешения: 1080p
Видео кодек: H.264/AVC
Аудио кодек: AC3
Видео: 1920x1080 at 23.976 fps, ~5000 kbps avg
Аудио: Russian: 48 kHz, AC3, 3/2 (L,C,R,l,r) + LFE ch, ~384.00 kbps avg |Многоголосый закадровый, Jaskier|
Аудио #2: Russian: 48 kHz, AC3, 3/2 (L,C,R,l,r) + LFE ch, ~384.00 kbps avg |Многоголосый закадровый, Lostfilm|
Аудио #3: English: 48 kHz, AC3, 3/2 (L,C,R,l,r) + LFE ch, ~384.00 kbps avg
Cубтитры: English, English SDH
В озвучке Jaskier: Голос Сойера из дубляжа LOST'а прилагается.
01. Пилот / Pilot
02. О дивный новый мир / A Brave New World
03. 98 секунд / 98 Seconds
04. Мёртвая зона / Blind Spot
05. Джеронимо / Geronimo
06. Йокнапатофа / Yoknapatawpha
07. Бруссард / Broussard
08. Обрести покой / In From the Cold
09. Нулевой день / Zero Day
10. Ворота / Gateway
Код:
Format                      : Matroska
Format version              : Version 4 / Version 2
File size                   : 2.22 GiB
Duration                    : 49mn 37s
Overall bit rate            : 6 417 Kbps
Movie name                  : Колония / Colony (2015) S01E01 Пилот / Pilot
Encoded date                : UTC 2016-01-09 17:09:04
Writing application         : mkvmerge v8.7.0 ('All of the above') 64bit
Writing library             : libebml v1.3.3 + libmatroska v1.4.4
Attachements                : cover.jpg
Video
ID                          : 1
Format                      : AVC
Format/Info                 : Advanced Video Codec
Format profile              : [email protected]
Format settings, CABAC      : Yes
Format settings, ReFrames   : 4 frames
Codec ID                    : V_MPEG4/ISO/AVC
Duration                    : 49mn 37s
Bit rate                    : 5 137 Kbps
Width                       : 1 920 pixels
Height                      : 1 080 pixels
Display aspect ratio        : 16:9
Frame rate mode             : Constant
Frame rate                  : 23.976 fps
Color space                 : YUV
Chroma subsampling          : 4:2:0
Bit depth                   : 8 bits
Scan type                   : Progressive
Bits/(Pixel*Frame)          : 0.103
Stream size                 : 1.78 GiB (80%)
Title                       : MPEG-4 AVC @ ~5000 Kbps - iTunes
Language                    : English
Default                     : Yes
Forced                      : No
Color primaries             : BT.709
Transfer characteristics    : BT.709
Matrix coefficients         : BT.709
Color range                 : Limited
Audio #1
ID                          : 2
Format                      : AC-3
Format/Info                 : Audio Coding 3
Mode extension              : CM (complete main)
Format settings, Endianness : Big
Codec ID                    : A_AC3
Duration                    : 49mn 37s
Bit rate mode               : Constant
Bit rate                    : 384 Kbps
Channel(s)                  : 6 channels
Channel positions           : Front: L C R, Side: L R, LFE
Sampling rate               : 48.0 KHz
Bit depth                   : 16 bits
Compression mode            : Lossy
Stream size                 : 136 MiB (6%)
Title                       : AC3 5.1 @ 384 Kbps - Многоголосый закадровый, Jaskier
Language                    : Russian
Default                     : Yes
Forced                      : No
Audio #2
ID                          : 3
Format                      : AC-3
Format/Info                 : Audio Coding 3
Mode extension              : CM (complete main)
Format settings, Endianness : Big
Codec ID                    : A_AC3
Duration                    : 49mn 37s
Bit rate mode               : Constant
Bit rate                    : 384 Kbps
Channel(s)                  : 6 channels
Channel positions           : Front: L C R, Side: L R, LFE
Sampling rate               : 48.0 KHz
Bit depth                   : 16 bits
Compression mode            : Lossy
Stream size                 : 136 MiB (6%)
Title                       : AC3 5.1 @ 384 Kbps - Многоголосый закадровый, LostFilm
Language                    : Russian
Default                     : No
Forced                      : No
Audio #3
ID                          : 4
Format                      : AC-3
Format/Info                 : Audio Coding 3
Mode extension              : CM (complete main)
Format settings, Endianness : Big
Codec ID                    : A_AC3
Duration                    : 49mn 37s
Bit rate mode               : Constant
Bit rate                    : 384 Kbps
Channel(s)                  : 6 channels
Channel positions           : Front: L C R, Side: L R, LFE
Sampling rate               : 48.0 KHz
Bit depth                   : 16 bits
Compression mode            : Lossy
Stream size                 : 136 MiB (6%)
Title                       : AC3 5.1 @ 384 Kbps
Language                    : English
Default                     : No
Forced                      : No
Text #1
ID                          : 5
Format                      : UTF-8
Codec ID                    : S_TEXT/UTF8
Codec ID/Info               : UTF-8 Plain Text
Title                       : SRT - Full
Language                    : English
Default                     : No
Forced                      : No
Text #2
ID                          : 6
Format                      : UTF-8
Codec ID                    : S_TEXT/UTF8
Codec ID/Info               : UTF-8 Plain Text
Title                       : SRT - Full SDH
Language                    : English
Default                     : No
Forced                      : No
Download / Скачать

Хотите скачать бесплатно? Зарегистрируйтесь на сайте (ссылка на регистрацию). Pirat.ca - самый быстрый торрент трекер в рунете!

Как скачивать  ·   Что такое торрент  ·   Рейтинг и ограничения



Последний раз редактировалось: TERMOS (2016-03-26 20:53), всего редактировалось 7 раз(а)

TERMOS ®

Легенда

12039

Пост 28-Янв-2016 21:47 (спустя 2 минуты)

[Q] 

Беглецы вернулись на экран.

_________________
[Профиль]  [ЛС] 

TERMOS ®

Легенда

12039

Пост 10-Фев-2016 22:37 (спустя 13 дней)

[Q] 

Ох и шляпа эти Легенды. Замена на Колонию.

_________________
[Профиль]  [ЛС] 

TERMOS ®

Легенда

12039

Пост 27-Фев-2016 20:54 (спустя 16 дней)

[Q] 

Добавлены 5-6 серии. Обновите торрент-файл!

_________________
[Профиль]  [ЛС] 

TERMOS ®

Легенда

12039

Пост 01-Мар-2016 02:14 (спустя 2 дня 5 часов)

[Q] 

Добавлена 7-я серия. Обновите торрент-файл!

_________________
[Профиль]  [ЛС] 

TERMOS ®

Легенда

12039

Пост 09-Мар-2016 12:39 (спустя 8 дней)

[Q] 

Добавлена 8-я серия. Обновите торрент-файл!

_________________
[Профиль]  [ЛС] 

TERMOS ®

Легенда

12039

Пост 14-Мар-2016 21:51 (спустя 5 дней)

[Q] 

Добавлена 9-я серия. Обновите торрент-файл!

_________________
[Профиль]  [ЛС] 

TERMOS ®

Легенда

12039

Пост 26-Мар-2016 20:55 (спустя 11 дней)

[Q] 

Добавлена 10-я серия. Финал сезона! Обновите торрент-файл!

_________________
[Профиль]  [ЛС] 

Пост 26-Мар-2016 22:26 (спустя 1 час 31 минута)

Топик был перенесен из форума Сериалы в эфире в форум Зарубежные сериалы
Андря
 
Показать сообщения:    
Ответить на тему

Текущее время: Сегодня 02:09

Часовой пояс: GMT + 4



Вы не можете начинать темы
Вы не можете отвечать на сообщения
Вы не можете редактировать свои сообщения
Вы не можете удалять свои сообщения
Вы не можете голосовать в опросах
Вы не можете прикреплять файлы к сообщениям
Вы не можете скачивать файлы

▼ Вниз